Featured TV Shows


Justice League Action S01E23

Posted By: Tavaz
1080p (FullHD) / WEB-DL IMDb
Justice League Action S01E23

Justice League Action S01E23
WEB-DL | MKV | 1912x1072 | English | H264 @ 5032 kbps | AC-3 @ 384 kbps | 11 min 21 s | 440 MiB
Subtitles: English
Genre: Animation, Family

Batman, Superman and Wonder Woman will lead the DC Super Heroes against their most infamous foes.

1cf5efcac599444cbd9f92b28f78f3ee.mkv (440.1 MB)



General
Unique ID : 192128971958673511995654424779922547478 (0x908AB1ABD0E7087296DCCF3AE78B2316)
Complete name : ./1cf5efcac599444cbd9f92b28f78f3ee.mkv
Format : Matroska
Format version : Version 4 / Version 2
File size : 440 MiB
Duration : 11 min 21 s
Overall bit rate : 5 418 kb/s
Encoded date : UTC 2017-06-14 23:24:36
Writing application : mkvmerge v12.0.0 ('Trust / Lust') 64bit
Writing library : libebml v1.3.4 + libmatroska v1.4.5

Video
ID : 1
Format : AVC
Format/Info : Advanced Video Codec
Format profile : High@L4
Format settings : CABAC / 4 Ref Frames
Format settings, CABAC : Yes
Format settings, RefFrames : 4 frames
Codec ID : V_MPEG4/ISO/AVC
Duration : 11 min 21 s
Bit rate : 5 033 kb/s
Width : 1 912 pixels
Height : 1 072 pixels
Display aspect ratio : 16:9
Frame rate mode : Constant
Frame rate : 23.976 (24000/1001) FPS
Color space : YUV
Chroma subsampling : 4:2:0
Bit depth : 8 bits
Scan type : Progressive
Bits/(Pixel*Frame) : 0.102
Stream size : 409 MiB (93%)
Language : English
Default : Yes
Forced : No
Color range : Limited
Color primaries : BT.709
Transfer characteristics : BT.709
Matrix coefficients : BT.709

Audio
ID : 2
Format : AC-3
Format/Info : Audio Coding 3
Format settings, Endianness : Big
Codec ID : A_AC3
Duration : 11 min 21 s
Bit rate mode : Constant
Bit rate : 384 kb/s
Channel(s) : 6 channels
Channel positions : Front: L C R, Side: L R, LFE
Sampling rate : 48.0 kHz
Frame rate : 31.250 FPS (1536 SPF)
Bit depth : 16 bits
Compression mode : Lossy
Delay relative to video : -42 ms
Stream size : 31.2 MiB (7%)
Language : English
Service kind : Complete Main
Default : Yes
Forced : No

Text
ID : 3
Format : UTF-8
Codec ID : S_TEXT/UTF8
Codec ID/Info : UTF-8 Plain Text
Duration : 11 min 5 s
Bit rate : 67 b/s
Count of elements : 186
Stream size : 5.48 KiB (0%)
Language : English
Default : Yes
Forced : No





Justice League Action S01E23


Justice League Action S01E23


Justice League Action S01E23


Justice League Action S01E23


Justice League Action S01E23

All episodes