Featured TV Shows


Justice League Action S01E24

Posted By: Tavaz
1080p (FullHD) / WEB-DL IMDb
Justice League Action S01E24

Justice League Action S01E24
WEB-DL | MKV | 1912x1072 | English | H264 @ 5184 kbps | AC-3 @ 384 kbps | 11 min 47 s | 470 MiB
Subtitles: English
Genre: Animation, Family

Batman, Superman and Wonder Woman will lead the DC Super Heroes against their most infamous foes.

8d163a5cece44be39df6a4fd444df07f.mkv (470.0 MB)



General
Unique ID : 185441152327608669771343611640007444827 (0x8B82AAB4A56AA73BBB39AA29F1A1495B)
Complete name : ./8d163a5cece44be39df6a4fd444df07f.mkv
Format : Matroska
Format version : Version 4 / Version 2
File size : 470 MiB
Duration : 11 min 47 s
Overall bit rate : 5 570 kb/s
Encoded date : UTC 2017-06-18 13:36:38
Writing application : mkvmerge v12.0.0 ('Trust / Lust') 64bit
Writing library : libebml v1.3.4 + libmatroska v1.4.5

Video
ID : 1
Format : AVC
Format/Info : Advanced Video Codec
Format profile : High@L4
Format settings : CABAC / 4 Ref Frames
Format settings, CABAC : Yes
Format settings, RefFrames : 4 frames
Codec ID : V_MPEG4/ISO/AVC
Duration : 11 min 47 s
Bit rate : 5 185 kb/s
Width : 1 912 pixels
Height : 1 072 pixels
Display aspect ratio : 16:9
Frame rate mode : Constant
Frame rate : 23.976 (24000/1001) FPS
Color space : YUV
Chroma subsampling : 4:2:0
Bit depth : 8 bits
Scan type : Progressive
Bits/(Pixel*Frame) : 0.106
Stream size : 437 MiB (93%)
Language : English
Default : Yes
Forced : No
Color range : Limited
Color primaries : BT.709
Transfer characteristics : BT.709
Matrix coefficients : BT.709

Audio
ID : 2
Format : AC-3
Format/Info : Audio Coding 3
Format settings, Endianness : Big
Codec ID : A_AC3
Duration : 11 min 47 s
Bit rate mode : Constant
Bit rate : 384 kb/s
Channel(s) : 6 channels
Channel positions : Front: L C R, Side: L R, LFE
Sampling rate : 48.0 kHz
Frame rate : 31.250 FPS (1536 SPF)
Bit depth : 16 bits
Compression mode : Lossy
Delay relative to video : -42 ms
Stream size : 32.4 MiB (7%)
Language : English
Service kind : Complete Main
Default : Yes
Forced : No

Text
ID : 3
Format : UTF-8
Codec ID : S_TEXT/UTF8
Codec ID/Info : UTF-8 Plain Text
Duration : 11 min 31 s
Bit rate : 46 b/s
Count of elements : 167
Stream size : 3.89 KiB (0%)
Language : English
Default : Yes
Forced : No





Justice League Action S01E24


Justice League Action S01E24


Justice League Action S01E24


Justice League Action S01E24


Justice League Action S01E24

All episodes