Featured TV Shows


Justice League Action S01E24

Posted By: Tavaz
720p (HD) / WEB-DL IMDb
Justice League Action S01E24

Justice League Action S01E24
WEB-DL | MKV | 1280x718 | English | H264 @ 4023 kbps | AC-3 @ 384 kbps | 11 min 47 s | 372 MiB
Subtitles: English
Genre: Animation, Family

Batman, Superman and Wonder Woman will lead the DC Super Heroes against their most infamous foes.

de1afded77294b81acd9a33eb615ab1b.mkv (372.1 MB)



General
Unique ID : 197187705909190411162410687226534990085 (0x9458F882E9626634B9F6329129909105)
Complete name : ./de1afded77294b81acd9a33eb615ab1b.mkv
Format : Matroska
Format version : Version 4 / Version 2
File size : 372 MiB
Duration : 11 min 47 s
Overall bit rate : 4 410 kb/s
Encoded date : UTC 2017-06-18 13:36:10
Writing application : mkvmerge v12.0.0 ('Trust / Lust') 64bit
Writing library : libebml v1.3.4 + libmatroska v1.4.5

Video
ID : 1
Format : AVC
Format/Info : Advanced Video Codec
Format profile : High@L3.1
Format settings : 2 Ref Frames
Format settings, CABAC : No
Format settings, RefFrames : 2 frames
Codec ID : V_MPEG4/ISO/AVC
Duration : 11 min 47 s
Bit rate : 4 024 kb/s
Width : 1 280 pixels
Height : 718 pixels
Display aspect ratio : 16:9
Frame rate mode : Constant
Frame rate : 23.976 (24000/1001) FPS
Color space : YUV
Chroma subsampling : 4:2:0
Bit depth : 8 bits
Scan type : Progressive
Bits/(Pixel*Frame) : 0.183
Stream size : 339 MiB (91%)
Language : English
Default : Yes
Forced : No
Color range : Limited
Color primaries : BT.709
Transfer characteristics : BT.709
Matrix coefficients : BT.709

Audio
ID : 2
Format : AC-3
Format/Info : Audio Coding 3
Format settings, Endianness : Big
Codec ID : A_AC3
Duration : 11 min 47 s
Bit rate mode : Constant
Bit rate : 384 kb/s
Channel(s) : 6 channels
Channel positions : Front: L C R, Side: L R, LFE
Sampling rate : 48.0 kHz
Frame rate : 31.250 FPS (1536 SPF)
Bit depth : 16 bits
Compression mode : Lossy
Stream size : 32.4 MiB (9%)
Language : English
Service kind : Complete Main
Default : Yes
Forced : No

Text
ID : 3
Format : UTF-8
Codec ID : S_TEXT/UTF8
Codec ID/Info : UTF-8 Plain Text
Duration : 11 min 31 s
Bit rate : 46 b/s
Count of elements : 167
Stream size : 3.89 KiB (0%)
Language : English
Default : Yes
Forced : No





Justice League Action S01E24


Justice League Action S01E24


Justice League Action S01E24


Justice League Action S01E24


Justice League Action S01E24

All episodes