Featured TV Shows


Justice League Action S01E32

Posted By: Tavaz
1080p (FullHD) / WEB-DL IMDb
Justice League Action S01E32

Justice League Action S01E32
WEB-DL | MKV | 1912x1072 | English | H264 @ 5147 kbps | AC-3 @ 384 kbps | 11 min 16 s | 446 MiB
Subtitles: English
Genre: Animation, Family

Batman, Superman and Wonder Woman will lead the DC Super Heroes against their most infamous foes.

0846e0caa1d34856b3a092c215baa4f4.mkv (446.3 MB)



General
Unique ID : 246982531991103699551227906915161827597 (0xB9CF1AFC2A1AE982BCBCD616862F690D)
Complete name : ./0846e0caa1d34856b3a092c215baa4f4.mkv
Format : Matroska
Format version : Version 4 / Version 2
File size : 446 MiB
Duration : 11 min 16 s
Overall bit rate : 5 534 kb/s
Encoded date : UTC 2017-08-21 03:16:29
Writing application : mkvmerge v15.0.0 ('Duel with the Devil') 64-bit
Writing library : libebml v1.3.5 + libmatroska v1.4.5

Video
ID : 1
Format : AVC
Format/Info : Advanced Video Codec
Format profile : High@L4
Format settings : CABAC / 4 Ref Frames
Format settings, CABAC : Yes
Format settings, RefFrames : 4 frames
Codec ID : V_MPEG4/ISO/AVC
Duration : 11 min 16 s
Bit rate : 5 148 kb/s
Width : 1 912 pixels
Height : 1 072 pixels
Display aspect ratio : 16:9
Frame rate mode : Constant
Frame rate : 23.976 (24000/1001) FPS
Color space : YUV
Chroma subsampling : 4:2:0
Bit depth : 8 bits
Scan type : Progressive
Bits/(Pixel*Frame) : 0.105
Stream size : 415 MiB (93%)
Language : English
Default : Yes
Forced : No
Color range : Limited
Color primaries : BT.709
Transfer characteristics : BT.709
Matrix coefficients : BT.709

Audio
ID : 2
Format : AC-3
Format/Info : Audio Coding 3
Format settings, Endianness : Big
Codec ID : A_AC3
Duration : 11 min 16 s
Bit rate mode : Constant
Bit rate : 384 kb/s
Channel(s) : 6 channels
Channel positions : Front: L C R, Side: L R, LFE
Sampling rate : 48.0 kHz
Frame rate : 31.250 FPS (1536 SPF)
Bit depth : 16 bits
Compression mode : Lossy
Delay relative to video : -42 ms
Stream size : 31.0 MiB (7%)
Language : English
Service kind : Complete Main
Default : Yes
Forced : No

Text
ID : 3
Format : UTF-8
Codec ID : S_TEXT/UTF8
Codec ID/Info : UTF-8 Plain Text
Duration : 11 min 2 s
Bit rate : 76 b/s
Count of elements : 234
Stream size : 6.18 KiB (0%)
Language : English
Default : Yes
Forced : No





Justice League Action S01E32


Justice League Action S01E32


Justice League Action S01E32


Justice League Action S01E32


Justice League Action S01E32

All episodes