Featured TV Shows


Justice League Action S01E33

Posted By: Tavaz
720p (HD) / WEB-DL IMDb
Justice League Action S01E33

Justice League Action S01E33
WEB-DL | MKV | 1280x718 | English | H264 @ 4064 kbps | AC-3 @ 384 kbps | 11 min 19 s | 360 MiB
Subtitles: English
Genre: Animation, Family

Batman, Superman and Wonder Woman will lead the DC Super Heroes against their most infamous foes.

b6fdf1e3a7df4fc1899ed4556550dfb2.mkv (360.3 MB)



General
Unique ID : 173427309724470517850578085704164246901 (0x8278E288A0EF2D1AA387C2C1EF990575)
Complete name : ./b6fdf1e3a7df4fc1899ed4556550dfb2.mkv
Format : Matroska
Format version : Version 4 / Version 2
File size : 360 MiB
Duration : 11 min 19 s
Overall bit rate : 4 451 kb/s
Encoded date : UTC 2017-08-28 02:58:39
Writing application : mkvmerge v15.0.0 ('Duel with the Devil') 64-bit
Writing library : libebml v1.3.5 + libmatroska v1.4.5

Video
ID : 2
Format : AVC
Format/Info : Advanced Video Codec
Format profile : High@L3.1
Format settings : 2 Ref Frames
Format settings, CABAC : No
Format settings, RefFrames : 2 frames
Codec ID : V_MPEG4/ISO/AVC
Duration : 11 min 19 s
Bit rate : 4 065 kb/s
Width : 1 280 pixels
Height : 718 pixels
Display aspect ratio : 16:9
Frame rate mode : Constant
Frame rate : 23.976 (24000/1001) FPS
Color space : YUV
Chroma subsampling : 4:2:0
Bit depth : 8 bits
Scan type : Progressive
Bits/(Pixel*Frame) : 0.184
Stream size : 329 MiB (91%)
Language : English
Default : Yes
Forced : No
Color range : Limited
Color primaries : BT.709
Transfer characteristics : BT.709
Matrix coefficients : BT.709

Audio
ID : 1
Format : AC-3
Format/Info : Audio Coding 3
Format settings, Endianness : Big
Codec ID : A_AC3
Duration : 11 min 19 s
Bit rate mode : Constant
Bit rate : 384 kb/s
Channel(s) : 6 channels
Channel positions : Front: L C R, Side: L R, LFE
Sampling rate : 48.0 kHz
Frame rate : 31.250 FPS (1536 SPF)
Bit depth : 16 bits
Compression mode : Lossy
Stream size : 31.1 MiB (9%)
Language : English
Service kind : Complete Main
Default : Yes
Forced : No

Text
ID : 3
Format : UTF-8
Codec ID : S_TEXT/UTF8
Codec ID/Info : UTF-8 Plain Text
Duration : 11 min 4 s
Bit rate : 65 b/s
Count of elements : 203
Stream size : 5.29 KiB (0%)
Language : English
Default : Yes
Forced : No





Justice League Action S01E33


Justice League Action S01E33


Justice League Action S01E33


Justice League Action S01E33


Justice League Action S01E33

All episodes