Featured TV Shows


Justice League Action S01E36

Posted By: Tavaz
1080p (FullHD) / WEB-DL IMDb
Justice League Action S01E36

Justice League Action S01E36
WEB-DL | MKV | 1912x1072 | English | H264 @ 5002 kbps | AC-3 @ 384 kbps | 11 min 13 s | 432 MiB
Subtitles: English
Genre: Animation, Family

Batman, Superman and Wonder Woman will lead the DC Super Heroes against their most infamous foes.

10094e88ac534400ab2c6f1dee7d6715.mkv (432.3 MB)



General
Unique ID : 238980882850261450229158021838693434571 (0xB3CA0B39365E9CDCA833194470C784CB)
Complete name : ./10094e88ac534400ab2c6f1dee7d6715.mkv
Format : Matroska
Format version : Version 4 / Version 2
File size : 432 MiB
Duration : 11 min 13 s
Overall bit rate : 5 388 kb/s
Encoded date : UTC 2017-09-17 22:00:30
Writing application : mkvmerge v15.0.0 ('Duel with the Devil') 64-bit
Writing library : libebml v1.3.5 + libmatroska v1.4.5

Video
ID : 1
Format : AVC
Format/Info : Advanced Video Codec
Format profile : High@L4
Format settings : CABAC / 4 Ref Frames
Format settings, CABAC : Yes
Format settings, RefFrames : 4 frames
Codec ID : V_MPEG4/ISO/AVC
Duration : 11 min 13 s
Bit rate : 5 002 kb/s
Width : 1 912 pixels
Height : 1 072 pixels
Display aspect ratio : 16:9
Frame rate mode : Constant
Frame rate : 23.976 (24000/1001) FPS
Color space : YUV
Chroma subsampling : 4:2:0
Bit depth : 8 bits
Scan type : Progressive
Bits/(Pixel*Frame) : 0.102
Stream size : 401 MiB (93%)
Language : English
Default : Yes
Forced : No
Color range : Limited
Color primaries : BT.709
Transfer characteristics : BT.709
Matrix coefficients : BT.709

Audio
ID : 2
Format : AC-3
Format/Info : Audio Coding 3
Format settings, Endianness : Big
Codec ID : A_AC3
Duration : 11 min 13 s
Bit rate mode : Constant
Bit rate : 384 kb/s
Channel(s) : 6 channels
Channel positions : Front: L C R, Side: L R, LFE
Sampling rate : 48.0 kHz
Frame rate : 31.250 FPS (1536 SPF)
Bit depth : 16 bits
Compression mode : Lossy
Delay relative to video : -42 ms
Stream size : 30.8 MiB (7%)
Language : English
Service kind : Complete Main
Default : Yes
Forced : No

Text
ID : 3
Format : UTF-8
Codec ID : S_TEXT/UTF8
Codec ID/Info : UTF-8 Plain Text
Duration : 10 min 59 s
Bit rate : 79 b/s
Count of elements : 226
Stream size : 6.40 KiB (0%)
Language : English
Default : Yes
Forced : No





Justice League Action S01E36


Justice League Action S01E36


Justice League Action S01E36


Justice League Action S01E36


Justice League Action S01E36

All episodes