Featured TV Shows


Justice League Action S01E39

Posted By: Tavaz
1080p (FullHD) / WEB-DL IMDb
Justice League Action S01E39

Justice League Action S01E39
WEB-DL | MKV | 1912x1072 | English | H264 @ 5211 kbps | AC-3 @ 384 kbps | 11 min 16 s | 451 MiB
Subtitles: English
Genre: Animation, Family

Batman, Superman and Wonder Woman will lead the DC Super Heroes against their most infamous foes.

984b1baf762c4f90afe5b800fe98aafb.mkv (451.2 MB)



General
Unique ID : 253418130051769881930204033744226244208 (0xBEA68E778D89D7838BCE6A4095B45670)
Complete name : ./984b1baf762c4f90afe5b800fe98aafb.mkv
Format : Matroska
Format version : Version 4 / Version 2
File size : 451 MiB
Duration : 11 min 16 s
Overall bit rate : 5 597 kb/s
Encoded date : UTC 2017-10-08 22:46:12
Writing application : mkvmerge v16.0.0 ('Protest') 64-bit
Writing library : libebml v1.3.5 + libmatroska v1.4.8

Video
ID : 1
Format : AVC
Format/Info : Advanced Video Codec
Format profile : High@L4
Format settings : CABAC / 4 Ref Frames
Format settings, CABAC : Yes
Format settings, RefFrames : 4 frames
Codec ID : V_MPEG4/ISO/AVC
Duration : 11 min 16 s
Bit rate : 5 212 kb/s
Width : 1 912 pixels
Height : 1 072 pixels
Display aspect ratio : 16:9
Frame rate mode : Constant
Frame rate : 23.976 (24000/1001) FPS
Color space : YUV
Chroma subsampling : 4:2:0
Bit depth : 8 bits
Scan type : Progressive
Bits/(Pixel*Frame) : 0.106
Stream size : 420 MiB (93%)
Language : English
Default : Yes
Forced : No
Color range : Limited
Color primaries : BT.709
Transfer characteristics : BT.709
Matrix coefficients : BT.709

Audio
ID : 2
Format : AC-3
Format/Info : Audio Coding 3
Format settings, Endianness : Big
Codec ID : A_AC3
Duration : 11 min 16 s
Bit rate mode : Constant
Bit rate : 384 kb/s
Channel(s) : 6 channels
Channel positions : Front: L C R, Side: L R, LFE
Sampling rate : 48.0 kHz
Frame rate : 31.250 FPS (1536 SPF)
Bit depth : 16 bits
Compression mode : Lossy
Delay relative to video : -42 ms
Stream size : 31.0 MiB (7%)
Language : English
Service kind : Complete Main
Default : Yes
Forced : No

Text
ID : 3
Format : UTF-8
Codec ID : S_TEXT/UTF8
Codec ID/Info : UTF-8 Plain Text
Duration : 11 min 2 s
Bit rate : 73 b/s
Count of elements : 155
Stream size : 5.93 KiB (0%)
Language : English
Default : Yes
Forced : No





Justice League Action S01E39


Justice League Action S01E39


Justice League Action S01E39


Justice League Action S01E39


Justice League Action S01E39

All episodes