Featured TV Shows


Justice League Action S01E41

Posted By: Tavaz
1080p (FullHD) / WEB-DL IMDb
Justice League Action S01E41

Justice League Action S01E41
WEB-DL | MKV | 1912x1072 | English | H264 @ 5129 kbps | AC-3 @ 384 kbps | 11 min 16 s | 445 MiB
Subtitles: English
Genre: Animation, Family

Batman, Superman and Wonder Woman will lead the DC Super Heroes against their most infamous foes.

5867a5a1bb1e4d8484bf6046207928ef.mkv (445.0 MB)



General
Unique ID : 218566713476235307350939338772593749219 (0xA46E6AF71ACE690C9B324E1647CBACE3)
Complete name : ./5867a5a1bb1e4d8484bf6046207928ef.mkv
Format : Matroska
Format version : Version 4 / Version 2
File size : 445 MiB
Duration : 11 min 16 s
Overall bit rate : 5 516 kb/s
Encoded date : UTC 2017-10-23 22:11:26
Writing application : mkvmerge v17.0.0 ('Be Ur Friend') 64-bit
Writing library : libebml v1.3.5 + libmatroska v1.4.8

Video
ID : 1
Format : AVC
Format/Info : Advanced Video Codec
Format profile : High@L4
Format settings : CABAC / 4 Ref Frames
Format settings, CABAC : Yes
Format settings, RefFrames : 4 frames
Codec ID : V_MPEG4/ISO/AVC
Duration : 11 min 16 s
Bit rate : 5 130 kb/s
Width : 1 912 pixels
Height : 1 072 pixels
Display aspect ratio : 16:9
Frame rate mode : Constant
Frame rate : 23.976 (24000/1001) FPS
Color space : YUV
Chroma subsampling : 4:2:0
Bit depth : 8 bits
Scan type : Progressive
Bits/(Pixel*Frame) : 0.104
Stream size : 414 MiB (93%)
Language : English
Default : Yes
Forced : No
Color range : Limited
Color primaries : BT.709
Transfer characteristics : BT.709
Matrix coefficients : BT.709

Audio
ID : 2
Format : AC-3
Format/Info : Audio Coding 3
Format settings, Endianness : Big
Codec ID : A_AC3
Duration : 11 min 16 s
Bit rate mode : Constant
Bit rate : 384 kb/s
Channel(s) : 6 channels
Channel positions : Front: L C R, Side: L R, LFE
Sampling rate : 48.0 kHz
Frame rate : 31.250 FPS (1536 SPF)
Bit depth : 16 bits
Compression mode : Lossy
Delay relative to video : -42 ms
Stream size : 31.0 MiB (7%)
Language : English
Service kind : Complete Main
Default : Yes
Forced : No

Text
ID : 3
Format : UTF-8
Codec ID : S_TEXT/UTF8
Codec ID/Info : UTF-8 Plain Text
Duration : 11 min 1 s
Bit rate : 61 b/s
Count of elements : 213
Stream size : 4.97 KiB (0%)
Language : English
Default : Yes
Forced : No





Justice League Action S01E41


Justice League Action S01E41


Justice League Action S01E41


Justice League Action S01E41


Justice League Action S01E41

All episodes