Featured TV Shows


Justice League Action S01E41

Posted By: Tavaz
720p (HD) / WEB-DL IMDb
Justice League Action S01E41

Justice League Action S01E41
WEB-DL | MKV | 1280x718 | English | H264 @ 4054 kbps | AC-3 @ 384 kbps | 11 min 16 s | 358 MiB
Subtitles: English
Genre: Animation, Family

Batman, Superman and Wonder Woman will lead the DC Super Heroes against their most infamous foes.

e4890878aaac4a86a60ad8813774a08a.mkv (358.2 MB)



General
Unique ID : 249938067677548833251137128328815295927 (0xBC08522513AAEE54952A1BBC8159BDB7)
Complete name : ./e4890878aaac4a86a60ad8813774a08a.mkv
Format : Matroska
Format version : Version 4 / Version 2
File size : 358 MiB
Duration : 11 min 16 s
Overall bit rate : 4 440 kb/s
Encoded date : UTC 2017-10-23 22:10:51
Writing application : mkvmerge v17.0.0 ('Be Ur Friend') 64-bit
Writing library : libebml v1.3.5 + libmatroska v1.4.8

Video
ID : 1
Format : AVC
Format/Info : Advanced Video Codec
Format profile : High@L3.1
Format settings : 2 Ref Frames
Format settings, CABAC : No
Format settings, RefFrames : 2 frames
Codec ID : V_MPEG4/ISO/AVC
Duration : 11 min 16 s
Bit rate : 4 054 kb/s
Width : 1 280 pixels
Height : 718 pixels
Display aspect ratio : 16:9
Frame rate mode : Constant
Frame rate : 23.976 (24000/1001) FPS
Color space : YUV
Chroma subsampling : 4:2:0
Bit depth : 8 bits
Scan type : Progressive
Bits/(Pixel*Frame) : 0.184
Stream size : 327 MiB (91%)
Language : English
Default : Yes
Forced : No
Color range : Limited
Color primaries : BT.709
Transfer characteristics : BT.709
Matrix coefficients : BT.709

Audio
ID : 2
Format : AC-3
Format/Info : Audio Coding 3
Format settings, Endianness : Big
Codec ID : A_AC3
Duration : 11 min 16 s
Bit rate mode : Constant
Bit rate : 384 kb/s
Channel(s) : 6 channels
Channel positions : Front: L C R, Side: L R, LFE
Sampling rate : 48.0 kHz
Frame rate : 31.250 FPS (1536 SPF)
Bit depth : 16 bits
Compression mode : Lossy
Stream size : 31.0 MiB (9%)
Language : English
Service kind : Complete Main
Default : Yes
Forced : No

Text
ID : 3
Format : UTF-8
Codec ID : S_TEXT/UTF8
Codec ID/Info : UTF-8 Plain Text
Duration : 11 min 1 s
Bit rate : 61 b/s
Count of elements : 213
Stream size : 4.97 KiB (0%)
Language : English
Default : Yes
Forced : No





Justice League Action S01E41


Justice League Action S01E41


Justice League Action S01E41


Justice League Action S01E41


Justice League Action S01E41

All episodes