Featured TV Shows


Justice League Action S01E42

Posted By: Tavaz
720p (HD) / WEB-DL IMDb
Justice League Action S01E42

Justice League Action S01E42
WEB-DL | MKV | 1280x718 | English | H264 @ 4052 kbps | AC-3 @ 384 kbps | 11 min 14 s | 357 MiB
Subtitles: English
Genre: Animation, Family

Batman, Superman and Wonder Woman will lead the DC Super Heroes against their most infamous foes.

089d368c4b29440da51ff49e16657332.mkv (357.0 MB)



General
Unique ID : 241948828097147818356717710975299406412 (0xB605A638CC4DECF99308CAB0D36ECA4C)
Complete name : ./089d368c4b29440da51ff49e16657332.mkv
Format : Matroska
Format version : Version 4 / Version 2
File size : 357 MiB
Duration : 11 min 14 s
Overall bit rate : 4 438 kb/s
Encoded date : UTC 2017-10-30 13:10:21
Writing application : mkvmerge v17.0.0 ('Be Ur Friend') 64-bit
Writing library : libebml v1.3.5 + libmatroska v1.4.8

Video
ID : 1
Format : AVC
Format/Info : Advanced Video Codec
Format profile : High@L3.1
Format settings : 2 Ref Frames
Format settings, CABAC : No
Format settings, RefFrames : 2 frames
Codec ID : V_MPEG4/ISO/AVC
Duration : 11 min 14 s
Bit rate : 4 052 kb/s
Width : 1 280 pixels
Height : 718 pixels
Display aspect ratio : 16:9
Frame rate mode : Constant
Frame rate : 23.976 (24000/1001) FPS
Color space : YUV
Chroma subsampling : 4:2:0
Bit depth : 8 bits
Scan type : Progressive
Bits/(Pixel*Frame) : 0.184
Stream size : 326 MiB (91%)
Language : English
Default : Yes
Forced : No
Color range : Limited
Color primaries : BT.709
Transfer characteristics : BT.709
Matrix coefficients : BT.709

Audio
ID : 2
Format : AC-3
Format/Info : Audio Coding 3
Format settings, Endianness : Big
Codec ID : A_AC3
Duration : 11 min 14 s
Bit rate mode : Constant
Bit rate : 384 kb/s
Channel(s) : 6 channels
Channel positions : Front: L C R, Side: L R, LFE
Sampling rate : 48.0 kHz
Frame rate : 31.250 FPS (1536 SPF)
Bit depth : 16 bits
Compression mode : Lossy
Stream size : 30.9 MiB (9%)
Language : English
Service kind : Complete Main
Default : Yes
Forced : No

Text
ID : 3
Format : UTF-8
Codec ID : S_TEXT/UTF8
Codec ID/Info : UTF-8 Plain Text
Duration : 11 min 0 s
Bit rate : 71 b/s
Count of elements : 212
Stream size : 5.76 KiB (0%)
Language : English
Default : Yes
Forced : No





Justice League Action S01E42


Justice League Action S01E42


Justice League Action S01E42


Justice League Action S01E42


Justice League Action S01E42

All episodes