Featured TV Shows


Justice League Action S01E44

Posted By: Tavaz
720p (HD) / WEB-DL IMDb
Justice League Action S01E44

Justice League Action S01E44
WEB-DL | MKV | 1280x720 | English | H264 @ 1614 kbps | E-AC-3 @ 640 kbps | 11 min 14 s | 181 MiB
Subtitles: English
Genre: Animation, Family

Batman, Superman and Wonder Woman will lead the DC Super Heroes against their most infamous foes.

b42e1c5e41194b0383bdff0e17f453db.mkv (181.4 MB)



General
Unique ID : 236708112468051701839131607293021489784 (0xB21452FDFEC9F9678D86F15226418A78)
Complete name : ./b42e1c5e41194b0383bdff0e17f453db.mkv
Format : Matroska
Format version : Version 4 / Version 2
File size : 181 MiB
Duration : 11 min 14 s
Overall bit rate mode : Variable
Overall bit rate : 2 257 kb/s
Encoded date : UTC 2017-11-18 17:21:32
Writing application : mkvmerge v13.0.0 ('The Juggler') 64bit
Writing library : libebml v1.3.4 + libmatroska v1.4.5

Video
ID : 1
Format : AVC
Format/Info : Advanced Video Codec
Format profile : High@L3.1
Format settings : CABAC / 5 Ref Frames
Format settings, CABAC : Yes
Format settings, RefFrames : 5 frames
Codec ID : V_MPEG4/ISO/AVC
Duration : 11 min 14 s
Bit rate mode : Variable
Bit rate : 1 615 kb/s
Maximum bit rate : 4 500 kb/s
Width : 1 280 pixels
Height : 720 pixels
Display aspect ratio : 16:9
Frame rate mode : Constant
Frame rate : 23.976 (24000/1001) FPS
Color space : YUV
Chroma subsampling : 4:2:0
Bit depth : 8 bits
Scan type : Progressive
Bits/(Pixel*Frame) : 0.073
Stream size : 130 MiB (72%)
Default : Yes
Forced : No
Color range : Limited
Color primaries : BT.709
Transfer characteristics : BT.709
Matrix coefficients : BT.709

Audio
ID : 2
Format : E-AC-3
Format/Info : Enhanced Audio Coding 3
Format settings, Endianness : Big
Codec ID : A_EAC3
Duration : 11 min 14 s
Bit rate mode : Constant
Bit rate : 640 kb/s
Channel(s) : 6 channels
Channel positions : Front: L C R, Side: L R, LFE
Sampling rate : 48.0 kHz
Frame rate : 187.500 FPS (256 SPF)
Compression mode : Lossy
Stream size : 51.4 MiB (28%)
Language : English
Service kind : Complete Main
Default : Yes
Forced : No

Text
ID : 3
Format : UTF-8
Codec ID : S_TEXT/UTF8
Codec ID/Info : UTF-8 Plain Text
Duration : 10 min 58 s
Bit rate : 74 b/s
Count of elements : 232
Stream size : 5.97 KiB (0%)
Language : English
Default : No
Forced : No





Justice League Action S01E44


Justice League Action S01E44


Justice League Action S01E44


Justice League Action S01E44


Justice League Action S01E44

All episodes