Featured TV Shows


Justice League Action S01E44

Posted By: Tavaz
1080p (FullHD) / WEB-DL IMDb
Justice League Action S01E44

Justice League Action S01E44
WEB-DL | MKV | 1920x1080 | English | H264 @ 3616 kbps | E-AC-3 @ 640 kbps | 11 min 14 s | 342 MiB
Subtitles: English
Genre: Animation, Family

Batman, Superman and Wonder Woman will lead the DC Super Heroes against their most infamous foes.

9866f393771d4b968e34c58346b02be2.mkv (342.2 MB)



General
Unique ID : 217004162801291250886862837397091767699 (0xA3417B44DDD109F4B6376EAFAFEBD593)
Complete name : ./9866f393771d4b968e34c58346b02be2.mkv
Format : Matroska
Format version : Version 4 / Version 2
File size : 342 MiB
Duration : 11 min 14 s
Overall bit rate mode : Variable
Overall bit rate : 4 258 kb/s
Encoded date : UTC 2017-11-18 17:21:11
Writing application : mkvmerge v13.0.0 ('The Juggler') 64bit
Writing library : libebml v1.3.4 + libmatroska v1.4.5

Video
ID : 1
Format : AVC
Format/Info : Advanced Video Codec
Format profile : High@L4
Format settings : CABAC / 4 Ref Frames
Format settings, CABAC : Yes
Format settings, RefFrames : 4 frames
Codec ID : V_MPEG4/ISO/AVC
Duration : 11 min 14 s
Bit rate mode : Variable
Bit rate : 3 616 kb/s
Maximum bit rate : 15.0 Mb/s
Width : 1 920 pixels
Height : 1 080 pixels
Display aspect ratio : 16:9
Frame rate mode : Constant
Frame rate : 23.976 (24000/1001) FPS
Color space : YUV
Chroma subsampling : 4:2:0
Bit depth : 8 bits
Scan type : Progressive
Bits/(Pixel*Frame) : 0.073
Stream size : 291 MiB (85%)
Default : Yes
Forced : No
Color range : Limited
Color primaries : BT.709
Transfer characteristics : BT.709
Matrix coefficients : BT.709

Audio
ID : 2
Format : E-AC-3
Format/Info : Enhanced Audio Coding 3
Format settings, Endianness : Big
Codec ID : A_EAC3
Duration : 11 min 14 s
Bit rate mode : Constant
Bit rate : 640 kb/s
Channel(s) : 6 channels
Channel positions : Front: L C R, Side: L R, LFE
Sampling rate : 48.0 kHz
Frame rate : 187.500 FPS (256 SPF)
Compression mode : Lossy
Stream size : 51.4 MiB (15%)
Language : English
Service kind : Complete Main
Default : Yes
Forced : No

Text
ID : 3
Format : UTF-8
Codec ID : S_TEXT/UTF8
Codec ID/Info : UTF-8 Plain Text
Duration : 10 min 58 s
Bit rate : 74 b/s
Count of elements : 232
Stream size : 5.97 KiB (0%)
Language : English
Default : No
Forced : No





Justice League Action S01E44


Justice League Action S01E44


Justice League Action S01E44


Justice League Action S01E44


Justice League Action S01E44

All episodes