Featured TV Shows


Justice League Action S01E45

Posted By: Tavaz
720p (HD) / WEB-DL IMDb
Justice League Action S01E45

Justice League Action S01E45
WEB-DL | MKV | 1280x720 | English | H264 @ 2140 kbps | E-AC-3 @ 640 kbps | 10 min 49 s | 215 MiB
Subtitles: English
Genre: Animation, Family

Batman, Superman and Wonder Woman will lead the DC Super Heroes against their most infamous foes.

b33d5957210f42b08da8d21c7c658d26.mkv (215.4 MB)



General
Unique ID : 239709019688331303899363303834162480575 (0xB45647242CF7A8B5AD64E2F44B56C5BF)
Complete name : ./b33d5957210f42b08da8d21c7c658d26.mkv
Format : Matroska
Format version : Version 4 / Version 2
File size : 215 MiB
Duration : 10 min 49 s
Overall bit rate mode : Variable
Overall bit rate : 2 782 kb/s
Encoded date : UTC 2017-11-19 20:19:05
Writing application : mkvmerge v18.0.0 ('Apricity') 64-bit
Writing library : libebml v1.3.5 + libmatroska v1.4.8

Video
ID : 1
Format : AVC
Format/Info : Advanced Video Codec
Format profile : High@L3.1
Format settings : CABAC / 5 Ref Frames
Format settings, CABAC : Yes
Format settings, RefFrames : 5 frames
Codec ID : V_MPEG4/ISO/AVC
Duration : 10 min 49 s
Bit rate mode : Variable
Bit rate : 2 140 kb/s
Maximum bit rate : 4 500 kb/s
Width : 1 280 pixels
Height : 720 pixels
Display aspect ratio : 16:9
Frame rate mode : Constant
Frame rate : 23.976 (24000/1001) FPS
Color space : YUV
Chroma subsampling : 4:2:0
Bit depth : 8 bits
Scan type : Progressive
Bits/(Pixel*Frame) : 0.097
Stream size : 166 MiB (77%)
Default : Yes
Forced : No
Color range : Limited
Color primaries : BT.709
Transfer characteristics : BT.709
Matrix coefficients : BT.709

Audio
ID : 2
Format : E-AC-3
Format/Info : Enhanced Audio Coding 3
Format settings, Endianness : Big
Codec ID : A_EAC3
Duration : 10 min 49 s
Bit rate mode : Constant
Bit rate : 640 kb/s
Channel(s) : 6 channels
Channel positions : Front: L C R, Side: L R, LFE
Sampling rate : 48.0 kHz
Frame rate : 187.500 FPS (256 SPF)
Compression mode : Lossy
Stream size : 49.5 MiB (23%)
Language : English
Service kind : Complete Main
Default : Yes
Forced : No

Text
ID : 3
Format : UTF-8
Codec ID : S_TEXT/UTF8
Codec ID/Info : UTF-8 Plain Text
Duration : 10 min 33 s
Bit rate : 73 b/s
Count of elements : 201
Stream size : 5.70 KiB (0%)
Language : English
Default : No
Forced : No





Justice League Action S01E45


Justice League Action S01E45


Justice League Action S01E45


Justice League Action S01E45


Justice League Action S01E45

All episodes