Featured TV Shows


Justice League Action S01E48

Posted By: Tavaz
1080p (FullHD) / WEBRip IMDb
Justice League Action S01E48

Justice League Action S01E48
WEBRip | MKV | 1920x1080 | English | H264 @ 3835 kbps | E-AC-3 @ 640 kbps | 11 min 14 s | 360 MiB
Subtitles: English
Genre: Animation, Family

Batman, Superman and Wonder Woman will lead the DC Super Heroes against their most infamous foes.

Justice.League.Action.S01E48.Barehanded.1080p.AMZN.WEB-DL.DD+5.1.H.264-CtrlHD.mkv (360.2 MB)



General
Unique ID : 183444962058927265125551903486147341551 (0x8A0236ED3FA66045C10A9B2B2890ACEF)
Complete name : ./Justice.League.Action.S01E48.Barehanded.1080p.AMZN.WEB-DL.DD+5.1.H.264-CtrlHD.mkv
Format : Matroska
Format version : Version 4 / Version 2
File size : 360 MiB
Duration : 11 min 14 s
Overall bit rate mode : Variable
Overall bit rate : 4 478 kb/s
Encoded date : UTC 2018-01-14 20:17:59
Writing application : mkvmerge v19.0.0 ('Brave Captain') 64-bit
Writing library : libebml v1.3.5 + libmatroska v1.4.8

Video
ID : 1
Format : AVC
Format/Info : Advanced Video Codec
Format profile : High@L4
Format settings : CABAC / 4 Ref Frames
Format settings, CABAC : Yes
Format settings, RefFrames : 4 frames
Codec ID : V_MPEG4/ISO/AVC
Duration : 11 min 14 s
Bit rate mode : Variable
Bit rate : 3 835 kb/s
Maximum bit rate : 15.0 Mb/s
Width : 1 920 pixels
Height : 1 080 pixels
Display aspect ratio : 16:9
Frame rate mode : Constant
Frame rate : 23.976 (24000/1001) FPS
Color space : YUV
Chroma subsampling : 4:2:0
Bit depth : 8 bits
Scan type : Progressive
Bits/(Pixel*Frame) : 0.077
Stream size : 309 MiB (86%)
Default : Yes
Forced : No
Color range : Limited
Color primaries : BT.709
Transfer characteristics : BT.709
Matrix coefficients : BT.709

Audio
ID : 2
Format : E-AC-3
Format/Info : Enhanced Audio Coding 3
Format settings, Endianness : Big
Codec ID : A_EAC3
Duration : 11 min 14 s
Bit rate mode : Constant
Bit rate : 640 kb/s
Channel(s) : 6 channels
Channel positions : Front: L C R, Side: L R, LFE
Sampling rate : 48.0 kHz
Frame rate : 187.500 FPS (256 SPF)
Compression mode : Lossy
Stream size : 51.5 MiB (14%)
Language : English
Service kind : Complete Main
Default : Yes
Forced : No

Text #1
ID : 3
Format : UTF-8
Codec ID : S_TEXT/UTF8
Codec ID/Info : UTF-8 Plain Text
Duration : 10 min 31 s
Bit rate : 82 b/s
Count of elements : 190
Stream size : 6.36 KiB (0%)
Language : English
Default : No
Forced : No

Text #2
ID : 4
Format : UTF-8
Codec ID : S_TEXT/UTF8
Codec ID/Info : UTF-8 Plain Text
Duration : 11 min 0 s
Bit rate : 89 b/s
Count of elements : 229
Stream size : 7.19 KiB (0%)
Title : SDH
Language : English
Default : No
Forced : No





Justice League Action S01E48


Justice League Action S01E48


Justice League Action S01E48


Justice League Action S01E48


Justice League Action S01E48

All episodes