Featured TV Shows


Justice League Action S01E49

Posted By: Tavaz
720p (HD) / WEB-DL IMDb
Justice League Action S01E49

Justice League Action S01E49
WEB-DL | MKV | 1280x720 | English | H264 @ 1544 kbps | E-AC-3 @ 640 kbps | 11 min 17 s | 177 MiB
Subtitles: English
Genre: Animation, Family

Batman, Superman and Wonder Woman will lead the DC Super Heroes against their most infamous foes.

363b9038613a4a95837bb2b32438be2c.mkv (176.6 MB)



General
Unique ID : 203345792153129307793240291206767375683 (0x98FAF99ABB9A262FAB63CD649DA8F543)
Complete name : ./363b9038613a4a95837bb2b32438be2c.mkv
Format : Matroska
Format version : Version 4 / Version 2
File size : 177 MiB
Duration : 11 min 17 s
Overall bit rate mode : Variable
Overall bit rate : 2 187 kb/s
Encoded date : UTC 2018-01-22 12:33:14
Writing application : mkvmerge v20.0.0 ('I Am The Sun') 64-bit
Writing library : libebml v1.3.5 + libmatroska v1.4.8

Video
ID : 1
Format : AVC
Format/Info : Advanced Video Codec
Format profile : High@L3.1
Format settings : CABAC / 5 Ref Frames
Format settings, CABAC : Yes
Format settings, RefFrames : 5 frames
Codec ID : V_MPEG4/ISO/AVC
Duration : 11 min 17 s
Bit rate mode : Variable
Bit rate : 1 545 kb/s
Maximum bit rate : 4 500 kb/s
Width : 1 280 pixels
Height : 720 pixels
Display aspect ratio : 16:9
Frame rate mode : Constant
Frame rate : 23.976 (24000/1001) FPS
Color space : YUV
Chroma subsampling : 4:2:0
Bit depth : 8 bits
Scan type : Progressive
Bits/(Pixel*Frame) : 0.070
Stream size : 125 MiB (71%)
Default : Yes
Forced : No
Color range : Limited
Color primaries : BT.709
Transfer characteristics : BT.709
Matrix coefficients : BT.709

Audio
ID : 2
Format : E-AC-3
Format/Info : Enhanced Audio Coding 3
Format settings, Endianness : Big
Codec ID : A_EAC3
Duration : 11 min 17 s
Bit rate mode : Constant
Bit rate : 640 kb/s
Channel(s) : 6 channels
Channel positions : Front: L C R, Side: L R, LFE
Sampling rate : 48.0 kHz
Frame rate : 187.500 FPS (256 SPF)
Compression mode : Lossy
Stream size : 51.7 MiB (29%)
Language : English
Service kind : Complete Main
Default : Yes
Forced : No

Text
ID : 3
Format : UTF-8
Codec ID : S_TEXT/UTF8
Codec ID/Info : UTF-8 Plain Text
Duration : 11 min 4 s
Bit rate : 70 b/s
Count of elements : 208
Stream size : 5.71 KiB (0%)
Language : English
Default : Yes
Forced : No





Justice League Action S01E49


Justice League Action S01E49


Justice League Action S01E49


Justice League Action S01E49


Justice League Action S01E49

All episodes