Featured TV Shows


Justice League Action S01E50

Posted By: Tavaz
1080p (FullHD) / WEB-DL IMDb
Justice League Action S01E50

Justice League Action S01E50
WEB-DL | MKV | 1920x1080 | English | H264 @ 3342 kbps | E-AC-3 @ 640 kbps | 11 min 15 s | 321 MiB
Subtitles: English
Genre: Animation, Family

Batman, Superman and Wonder Woman will lead the DC Super Heroes against their most infamous foes.

726982f744f84a90b465a812e7ce59c9.mkv (320.6 MB)



General
Unique ID : 78000280630211224736743860018000215904 (0x3AAE4EBFC45E2E2EE85537377604BF60)
Complete name : ./726982f744f84a90b465a812e7ce59c9.mkv
Format : Matroska
Format version : Version 4 / Version 2
File size : 321 MiB
Duration : 11 min 15 s
Overall bit rate mode : Variable
Overall bit rate : 3 984 kb/s
Encoded date : UTC 2018-01-28 14:03:54
Writing application : mkvmerge v20.0.0 ('I Am The Sun') 64-bit
Writing library : libebml v1.3.5 + libmatroska v1.4.8

Video
ID : 1
Format : AVC
Format/Info : Advanced Video Codec
Format profile : High@L4
Format settings : CABAC / 4 Ref Frames
Format settings, CABAC : Yes
Format settings, RefFrames : 4 frames
Codec ID : V_MPEG4/ISO/AVC
Duration : 11 min 15 s
Bit rate mode : Variable
Bit rate : 3 342 kb/s
Maximum bit rate : 15.0 Mb/s
Width : 1 920 pixels
Height : 1 080 pixels
Display aspect ratio : 16:9
Frame rate mode : Constant
Frame rate : 23.976 (24000/1001) FPS
Color space : YUV
Chroma subsampling : 4:2:0
Bit depth : 8 bits
Scan type : Progressive
Bits/(Pixel*Frame) : 0.067
Stream size : 269 MiB (84%)
Default : Yes
Forced : No
Color range : Limited
Color primaries : BT.709
Transfer characteristics : BT.709
Matrix coefficients : BT.709

Audio
ID : 2
Format : E-AC-3
Format/Info : Enhanced Audio Coding 3
Format settings, Endianness : Big
Codec ID : A_EAC3
Duration : 11 min 15 s
Bit rate mode : Constant
Bit rate : 640 kb/s
Channel(s) : 6 channels
Channel positions : Front: L C R, Side: L R, LFE
Sampling rate : 48.0 kHz
Frame rate : 187.500 FPS (256 SPF)
Compression mode : Lossy
Stream size : 51.5 MiB (16%)
Language : English
Service kind : Complete Main
Default : Yes
Forced : No

Text
ID : 3
Format : UTF-8
Codec ID : S_TEXT/UTF8
Codec ID/Info : UTF-8 Plain Text
Duration : 11 min 0 s
Bit rate : 80 b/s
Count of elements : 226
Stream size : 6.53 KiB (0%)
Language : English
Default : Yes
Forced : No





Justice League Action S01E50


Justice League Action S01E50


Justice League Action S01E50


Justice League Action S01E50


Justice League Action S01E50

All episodes