Featured TV Shows


Justice League Action S01E50

Posted By: Tavaz
720p (HD) / WEB-DL IMDb
Justice League Action S01E50

Justice League Action S01E50
WEB-DL | MKV | 1280x720 | English | H264 @ 1449 kbps | E-AC-3 @ 640 kbps | 11 min 15 s | 168 MiB
Subtitles: English
Genre: Animation, Family

Batman, Superman and Wonder Woman will lead the DC Super Heroes against their most infamous foes.

075c4b30f8e047b4bbb89b533f67e055.mkv (168.3 MB)



General
Unique ID : 11334352095673708222054877870600458382 (0x886EAB4118F1226D5BA104B2363908E)
Complete name : ./075c4b30f8e047b4bbb89b533f67e055.mkv
Format : Matroska
Format version : Version 4 / Version 2
File size : 168 MiB
Duration : 11 min 15 s
Overall bit rate mode : Variable
Overall bit rate : 2 092 kb/s
Encoded date : UTC 2018-01-28 14:03:55
Writing application : mkvmerge v20.0.0 ('I Am The Sun') 64-bit
Writing library : libebml v1.3.5 + libmatroska v1.4.8

Video
ID : 1
Format : AVC
Format/Info : Advanced Video Codec
Format profile : High@L3.1
Format settings : CABAC / 5 Ref Frames
Format settings, CABAC : Yes
Format settings, RefFrames : 5 frames
Codec ID : V_MPEG4/ISO/AVC
Duration : 11 min 15 s
Bit rate mode : Variable
Bit rate : 1 450 kb/s
Maximum bit rate : 4 500 kb/s
Width : 1 280 pixels
Height : 720 pixels
Display aspect ratio : 16:9
Frame rate mode : Constant
Frame rate : 23.976 (24000/1001) FPS
Color space : YUV
Chroma subsampling : 4:2:0
Bit depth : 8 bits
Scan type : Progressive
Bits/(Pixel*Frame) : 0.066
Stream size : 117 MiB (69%)
Default : Yes
Forced : No
Color range : Limited
Color primaries : BT.709
Transfer characteristics : BT.709
Matrix coefficients : BT.709

Audio
ID : 2
Format : E-AC-3
Format/Info : Enhanced Audio Coding 3
Format settings, Endianness : Big
Codec ID : A_EAC3
Duration : 11 min 15 s
Bit rate mode : Constant
Bit rate : 640 kb/s
Channel(s) : 6 channels
Channel positions : Front: L C R, Side: L R, LFE
Sampling rate : 48.0 kHz
Frame rate : 187.500 FPS (256 SPF)
Compression mode : Lossy
Stream size : 51.5 MiB (31%)
Language : English
Service kind : Complete Main
Default : Yes
Forced : No

Text
ID : 3
Format : UTF-8
Codec ID : S_TEXT/UTF8
Codec ID/Info : UTF-8 Plain Text
Duration : 11 min 0 s
Bit rate : 80 b/s
Count of elements : 226
Stream size : 6.53 KiB (0%)
Language : English
Default : Yes
Forced : No





Justice League Action S01E50


Justice League Action S01E50


Justice League Action S01E50


Justice League Action S01E50


Justice League Action S01E50

All episodes