Featured TV Shows


Game of Thrones S04E01

Posted By: Tavaz
Game of Thrones S04E01

Game of Thrones S04E01
MOV | 1280x720 | H264 @ 1216 kbps | AAC @ 128 kbps | 57 min 52 s | 558 MiB
Genre: Drama


Seven noble families fight for control of the mythical land of Westeros. Friction between the houses leads to full-scale war. All while a very ancient evil awakens in the farthest north. Amidst the war, a neglected military order of misfits, the Night's Watch, is all that stands between the realms of men and icy horrors beyond.

Game.of.Thrones.S04E02.WEBDL.720p.Hindi.x264-KatmovieHD.it.mkv (498.9 MB)
Game.of.Thrones.S04E03.WEBDL.720p.Hindi.x264-KatmovieHD.it.mkv (548.2 MB)
Game.of.Thrones.S04E01.WEBDL.720p.Hindi.x264-KatmovieHD.it.mkv (558.3 MB)



General
Complete name : ./Game.of.Thrones.S04E01.WEBDL.720p.Hindi.x264-KatmovieHD.it.mkv
Format : MPEG-4
Format profile : Base Media
Codec ID : isom (isom/iso2/avc1/mp41)
File size : 558 MiB
Duration : 57 min 52 s
Overall bit rate : 1 349 kb/s
Writing application : Lavf57.83.100
FileExtension_Invalid : mov mp4 m4v m4a m4b m4p 3ga 3gpa 3gpp 3gp 3gpp2 3g2 k3g jpm jpx mqv ismv isma ismt f4a f4b f4v

Video
ID : 1
Format : AVC
Format/Info : Advanced Video Codec
Format profile : High@L3.1
Format settings : CABAC / 5 Ref Frames
Format settings, CABAC : Yes
Format settings, RefFrames : 5 frames
Codec ID : avc1
Codec ID/Info : Advanced Video Coding
Duration : 57 min 52 s
Bit rate : 1 216 kb/s
Width : 1 280 pixels
Height : 720 pixels
Display aspect ratio : 16:9
Frame rate mode : Constant
Frame rate : 23.976 (24000/1001) FPS
Color space : YUV
Chroma subsampling : 4:2:0
Bit depth : 8 bits
Scan type : Progressive
Bits/(Pixel*Frame) : 0.055
Stream size : 504 MiB (90%)
Writing library : x264 core 148 r2643 5c65704
Encoding settings : cabac=1 / ref=5 / deblock=1:0:0 / analyse=0x3:0x113 / me=hex / subme=7 / psy=1 / psy_rd=1.00:0.00 / mixed_ref=1 / me_range=16 / chroma_me=1 / trellis=1 / 8x8dct=1 / cqm=0 / deadzone=21,11 / fast_pskip=1 / chroma_qp_offset=-2 / threads=8 / lookahead_threads=8 / sliced_threads=1 / slices=8 / nr=0 / decimate=1 / interlaced=0 / bluray_compat=0 / constrained_intra=0 / bframes=0 / weightp=2 / keyint=250 / keyint_min=23 / scenecut=40 / intra_refresh=0 / rc=2pass / mbtree=0 / bitrate=1216 / ratetol=1.0 / qcomp=0.60 / qpmin=0 / qpmax=69 / qpstep=4 / cplxblur=20.0 / qblur=0.5 / ip_ratio=1.40 / aq=1:1.00

Audio
ID : 2
Format : AAC
Format/Info : Advanced Audio Codec
Format profile : LC
Codec ID : mp4a-40-2
Duration : 57 min 52 s
Bit rate mode : Constant
Bit rate : 128 kb/s
Channel(s) : 2 channels
Channel positions : Front: L R
Sampling rate : 48.0 kHz
Frame rate : 46.875 FPS (1024 SPF)
Compression mode : Lossy
Stream size : 53.0 MiB (9%)
Default : Yes
Alternate group : 1





Game of Thrones S04E01


Game of Thrones S04E01


Game of Thrones S04E01


Game of Thrones S04E01


Game of Thrones S04E01

All episodes