Featured TV Shows


Killing Eve S02E05

Posted By: Tavaz
1080p (FullHD) / WEBRip IMDb
Killing Eve S02E05

Killing Eve S02E05
WEBRip | MKV | 1920x1080 | English | H264 @ 7015 kbps | E-AC-3 @ 640 kbps | 41 min 2 s | 2.20 GiB
Subtitles: English
Genre: Crime, Drama


A security consultant hunts for a ruthless assassin. Equally obsessed with each other, they go head to head in an epic game of cat-and-mouse.

Killing.Eve.S02E05.1080p.WEB.H264-METCON.mkv (2.2 GB)



General
Unique ID : 42396326885663460933295147154731026600 (0x1FE53C4CE1917F6AAD3EA1729829C8A8)
Complete name : ./Killing.Eve.S02E05.1080p.WEB.H264-METCON.mkv
Format : Matroska
Format version : Version 4 / Version 2
File size : 2.20 GiB
Duration : 41 min 2 s
Overall bit rate : 7 658 kb/s
Encoded date : UTC 2019-05-06 07:02:14
Writing application : mkvmerge v33.1.0 ('Primrose') 64-bit
Writing library : libebml v1.3.7 + libmatroska v1.5.0

Video
ID : 1
Format : AVC
Format/Info : Advanced Video Codec
Format profile : High@L4
Format settings : CABAC / 4 Ref Frames
Format settings, CABAC : Yes
Format settings, RefFrames : 4 frames
Codec ID : V_MPEG4/ISO/AVC
Duration : 41 min 2 s
Bit rate mode : Constant
Bit rate : 7 015 kb/s
Nominal bit rate : 10 000 kb/s
Width : 1 920 pixels
Height : 1 080 pixels
Display aspect ratio : 16:9
Frame rate mode : Constant
Frame rate : 25.000 FPS
Color space : YUV
Chroma subsampling : 4:2:0
Bit depth : 8 bits
Scan type : Progressive
Bits/(Pixel*Frame) : 0.135
Stream size : 2.01 GiB (92%)
Language : English
Default : Yes
Forced : No
Color range : Limited
Color primaries : BT.709
Transfer characteristics : BT.709
Matrix coefficients : BT.709

Audio
ID : 2
Format : E-AC-3
Format/Info : Enhanced Audio Coding 3
Format settings, Endianness : Big
Codec ID : A_EAC3
Duration : 41 min 2 s
Bit rate mode : Constant
Bit rate : 640 kb/s
Channel(s) : 6 channels
Channel positions : Front: L C R, Side: L R, LFE
Sampling rate : 48.0 kHz
Frame rate : 187.500 FPS (256 SPF)
Compression mode : Lossy
Stream size : 188 MiB (8%)
Language : English
Service kind : Complete Main
Default : Yes
Forced : No

Text
ID : 3
Format : UTF-8
Codec ID : S_TEXT/UTF8
Codec ID/Info : UTF-8 Plain Text
Duration : 40 min 28 s
Bit rate : 52 b/s
Count of elements : 575
Stream size : 15.5 KiB (0%)
Title : English
Language : English
Default : No
Forced : No





Killing Eve S02E05


Killing Eve S02E05


Killing Eve S02E05


Killing Eve S02E05


Killing Eve S02E05

All episodes