Featured TV Shows


Killjoys S04E07

Posted By: Tavaz
SD / HDTV IMDb
Killjoys S04E07

Killjoys S04E07
HDTV | MKV | 720x404 | German | H264 @ 596 kbps | AC-3 @ 384 kbps | 39 min 15 s | 276 MiB

Eine actiongeladene Abeteuerserie um drei interplanetare Kopfgeldjäger die durch politische Aufruhr, fragwürdige Moral und komplizierte Beziehungen navigieren.

S04E07 Das schwarze Loch.mkv (275.8 MB)



General
Unique ID : 202904915435987569086262717874793187274 (0x98A610B43BE87A52B8635386A36987CA)
Complete name : ./KiJo S04E07 German/S04E07 Das schwarze Loch.mkv
Format : Matroska
Format version : Version 4 / Version 2
File size : 276 MiB
Duration : 39 min 15 s
Overall bit rate : 982 kb/s
Encoded date : UTC 2019-01-10 20:50:19
Writing application : mkvmerge v7.6.0 ('Garden of Dreams') 64bit built on Feb 8 2015 13:04:34
Writing library : libebml v1.3.1 + libmatroska v1.4.2

Video
ID : 1
Format : AVC
Format/Info : Advanced Video Codec
Format profile : High@L3.1
Format settings : CABAC / 5 Ref Frames
Format settings, CABAC : Yes
Format settings, RefFrames : 5 frames
Codec ID : V_MPEG4/ISO/AVC
Duration : 39 min 15 s
Bit rate : 596 kb/s
Width : 720 pixels
Height : 404 pixels
Display aspect ratio : 16:9
Frame rate mode : Constant
Frame rate : 25.000 FPS
Color space : YUV
Chroma subsampling : 4:2:0
Bit depth : 8 bits
Scan type : Progressive
Bits/(Pixel*Frame) : 0.082
Stream size : 167 MiB (61%)
Writing library : x264 core 157 r2935 545de2f
Encoding settings : cabac=1 / ref=5 / deblock=1:-2:-2 / analyse=0x3:0x113 / me=umh / subme=8 / psy=1 / psy_rd=1.00:0.00 / mixed_ref=1 / me_range=16 / chroma_me=1 / trellis=2 / 8x8dct=1 / cqm=0 / deadzone=21,11 / fast_pskip=1 / chroma_qp_offset=-2 / threads=12 / lookahead_threads=2 / sliced_threads=0 / nr=0 / decimate=1 / interlaced=0 / bluray_compat=0 / constrained_intra=0 / bframes=3 / b_pyramid=2 / b_adapt=1 / b_bias=0 / direct=3 / weightb=1 / open_gop=0 / weightp=2 / keyint=250 / keyint_min=25 / scenecut=40 / intra_refresh=0 / rc_lookahead=50 / rc=crf / mbtree=1 / crf=19.0 / qcomp=0.60 / qpmin=0 / qpmax=69 / qpstep=4 / ip_ratio=1.40 / aq=1:1.00
Language : German
Default : Yes
Forced : No

Audio
ID : 2
Format : AC-3
Format/Info : Audio Coding 3
Format settings, Endianness : Big
Codec ID : A_AC3
Duration : 39 min 15 s
Bit rate mode : Constant
Bit rate : 384 kb/s
Channel(s) : 2 channels
Channel positions : Front: L R
Sampling rate : 48.0 kHz
Frame rate : 31.250 FPS (1536 SPF)
Bit depth : 16 bits
Compression mode : Lossy
Stream size : 108 MiB (39%)
Language : German
Service kind : Complete Main
Default : Yes
Forced : No





Killjoys S04E07


Killjoys S04E07


Killjoys S04E07


Killjoys S04E07


Killjoys S04E07

All episodes