Featured TV Shows


Legacies S02E04

Posted By: Tavaz
720p (HD) / WEB-DL IMDb
Legacies S02E04

Legacies S02E04
WEB-DL | MKV | 1280x720 | English | H264 @ 3881 kbps | E-AC-3 @ 640 kbps | 42 min 20 s | 1.34 GiB
Subtitles: English
Genre: Drama, Mystery


In a place where young witches, vampires, and werewolves are nurtured to be their best selves in spite of their worst impulses, Klaus Mikaelson’s daughter, 17-year-old Hope Mikaelson, Alaric Saltzman’s twins, Lizzie and Josie Saltzman, among others, come of age into heroes and villains at The Salvatore School for the Young and Gifted.

a6cd914b000d47a2b365f5253071b3ad.mkv (1.3 GB)



General
Unique ID : 315469811564170363731516867938966898577 (0xED554691ED36A7B64834364F5B550791)
Complete name : ./a6cd914b000d47a2b365f5253071b3ad.mkv
Format : Matroska
Format version : Version 4 / Version 2
File size : 1.34 GiB
Duration : 42 min 20 s
Overall bit rate : 4 523 kb/s
Encoded date : UTC 2019-11-08 16:05:20
Writing application : mkvmerge v39.0.0 ('In The Waiting Line') 64-bit
Writing library : libebml v1.3.9 + libmatroska v1.5.2

Video
ID : 1
Format : AVC
Format/Info : Advanced Video Codec
Format profile : High@L3.1
Format settings : CABAC / 4 Ref Frames
Format settings, CABAC : Yes
Format settings, RefFrames : 4 frames
Codec ID : V_MPEG4/ISO/AVC
Duration : 42 min 20 s
Bit rate mode : Constant
Bit rate : 3 881 kb/s
Nominal bit rate : 6 000 kb/s
Width : 1 280 pixels
Height : 720 pixels
Display aspect ratio : 16:9
Frame rate mode : Constant
Frame rate : 23.976 (24000/1001) FPS
Color space : YUV
Chroma subsampling : 4:2:0
Bit depth : 8 bits
Scan type : Progressive
Bits/(Pixel*Frame) : 0.176
Stream size : 1.15 GiB (86%)
Default : Yes
Forced : No
Color range : Limited
Color primaries : BT.709
Transfer characteristics : BT.709
Matrix coefficients : BT.709

Audio
ID : 2
Format : E-AC-3
Format/Info : Enhanced Audio Coding 3
Format settings, Endianness : Big
Codec ID : A_EAC3
Duration : 42 min 20 s
Bit rate mode : Constant
Bit rate : 640 kb/s
Channel(s) : 6 channels
Channel positions : Front: L C R, Side: L R, LFE
Sampling rate : 48.0 kHz
Frame rate : 187.500 FPS (256 SPF)
Compression mode : Lossy
Stream size : 194 MiB (14%)
Language : English
Service kind : Complete Main
Default : Yes
Forced : No

Text #1
ID : 3
Format : UTF-8
Codec ID : S_TEXT/UTF8
Codec ID/Info : UTF-8 Plain Text
Duration : 41 min 45 s
Bit rate : 75 b/s
Count of elements : 816
Stream size : 23.2 KiB (0%)
Language : English
Default : No
Forced : No

Text #2
ID : 4
Format : UTF-8
Codec ID : S_TEXT/UTF8
Codec ID/Info : UTF-8 Plain Text
Duration : 41 min 45 s
Bit rate : 76 b/s
Count of elements : 821
Stream size : 23.3 KiB (0%)
Title : SDH
Language : English
Default : No
Forced : No

Menu
00:00:00.000 : en:Previously On
00:00:42.000 : en:Scene 2
00:02:48.000 : en:Title Sequence
00:02:55.000 : en:Scene 4
00:11:11.000 : en:Scene 5
00:18:02.000 : en:Scene 6
00:25:19.000 : en:Scene 7
00:28:58.000 : en:Scene 8
00:34:10.000 : en:Scene 9
00:41:49.000 : en:End Credits





Legacies S02E04


Legacies S02E04


Legacies S02E04


Legacies S02E04


Legacies S02E04

All episodes