Index
# A B C D E F G H I J K L M N O P Q R S T U V W Y Z
Tags
Language
Tags

Featured TV Shows


Legacies S04E04

Posted By: Tavaz
720p (HD) / WEBRip IMDb
Legacies S04E04

Legacies S04E04
WEBRip | MKV | 1280x720 | English | H264 @ 4091 kbps | E-AC-3 @ 640 kbps | 42 min 16 s | 1.40 GiB
Subtitles: English
Genre: Drama


In a place where young witches, vampires, and werewolves are nurtured to be their best selves in spite of their worst impulses, Klaus Mikaelson’s daughter, 17-year-old Hope Mikaelson, Alaric Saltzman’s twins, Lizzie and Josie Saltzman, among others, come of age into heroes and villains at The Salvatore School for the Young and Gifted.

63d0dae95a404fdda6338c3e1297f9c5.mkv (1.4 GB)



General
Unique ID : 190506238287604000260824667668763141216 (0x8F522AB95F7954B9AB59D1B193F06460)
Complete name : ./63d0dae95a404fdda6338c3e1297f9c5.mkv
Format : Matroska
Format version : Version 4 / Version 2
File size : 1.40 GiB
Duration : 42 min 16 s
Overall bit rate : 4 734 kb/s
Movie name : Legacies - S04E04 - See You On The Other Side
Encoded date : UTC 2021-11-05 04:04:19
Writing application : mkvmerge v61.0.0 ('So') 64-bit
Writing library : libebml v1.4.2 + libmatroska v1.6.4
IMDB : tt8103070
TMDB : tv/79460

Video
ID : 1
Format : AVC
Format/Info : Advanced Video Codec
Format profile : High@L3.1
Format settings : CABAC / 4 Ref Frames
Format settings, CABAC : Yes
Format settings, RefFrames : 4 frames
Codec ID : V_MPEG4/ISO/AVC
Duration : 42 min 16 s
Bit rate mode : Constant
Bit rate : 4 092 kb/s
Nominal bit rate : 6 000 kb/s
Width : 1 280 pixels
Height : 720 pixels
Display aspect ratio : 16:9
Frame rate mode : Constant
Frame rate : 23.976 (24000/1001) FPS
Color space : YUV
Chroma subsampling : 4:2:0
Bit depth : 8 bits
Scan type : Progressive
Bits/(Pixel*Frame) : 0.185
Stream size : 1.21 GiB (86%)
Default : Yes
Forced : No
Color range : Limited
Color primaries : BT.709
Transfer characteristics : BT.709
Matrix coefficients : BT.709

Audio
ID : 2
Format : E-AC-3
Format/Info : Enhanced Audio Coding 3
Format settings, Endianness : Big
Codec ID : A_EAC3
Duration : 42 min 16 s
Bit rate mode : Constant
Bit rate : 640 kb/s
Channel(s) : 6 channels
Channel positions : Front: L C R, Side: L R, LFE
Sampling rate : 48.0 kHz
Frame rate : 187.500 FPS (256 SPF)
Compression mode : Lossy
Stream size : 194 MiB (14%)
Language : English
Service kind : Complete Main
Default : Yes
Forced : No

Text #1
ID : 3
Format : UTF-8
Codec ID : S_TEXT/UTF8
Codec ID/Info : UTF-8 Plain Text
Duration : 41 min 40 s
Bit rate : 60 b/s
Count of elements : 640
Stream size : 18.3 KiB (0%)
Language : English
Default : No
Forced : No

Text #2
ID : 4
Format : UTF-8
Codec ID : S_TEXT/UTF8
Codec ID/Info : UTF-8 Plain Text
Duration : 41 min 40 s
Bit rate : 64 b/s
Count of elements : 712
Stream size : 19.7 KiB (0%)
Title : SDH
Language : English
Default : No
Forced : No

Menu
00:41:43.000 : Credits





Legacies S04E04


Legacies S04E04


Legacies S04E04


Legacies S04E04


Legacies S04E04

All episodes