Lethal Weapon S02E07

Posted By: Tavaz
1080p (FullHD) / WEB-DL IMDb
Lethal Weapon S02E07

Lethal Weapon S02E07
WEB-DL | MKV | 1920x1080 | Italian | H264 @ 4920 kbps | AC-3 @ 192 kbps | 42 min 0 s | 1.54 GiB
Genre: Crime, Dramma

Dopo la tragica morte della giovane moglie e della "probabile" morte del bambino che portava in grembo, il detective Martin Riggs, ex Navy Seal, si trasferisce al Los Angeles Police Department in cerca di un nuovo inizio. Per bilanciare i suoi modi bruschi e istintivi che tendono a mettere a repentaglio la sicurezza sia propria che dei suoi colleghi, gli viene affiancato un partner d'esperienza nonché padre di famiglia, il detective Roger Murtaugh.

Lethal.Weapon.2x07.Birdwatching.ITA.1080p.WEBMux.x264-NovaRip.mkv (1.5 GB)



General
Unique ID : 217008975900196807779991877436075203275 (0xA3426892B7260408132522CDA9A8DACB)
Complete name : ./Lethal.Weapon.2x07.Birdwatching.ITA.1080p.WEBMux.x264-NovaRip.mkv
Format : Matroska
Format version : Version 2
File size : 1.54 GiB
Duration : 42 min 0 s
Overall bit rate : 5 260 kb/s
Encoded date : UTC 2018-05-20 19:57:33
Writing application : mkvmerge v8.5.2 ('Crosses') 64bit
Writing library : libebml v1.3.3 + libmatroska v1.4.4

Video
ID : 1
Format : AVC
Format/Info : Advanced Video Codec
Format profile : High@L4
Format settings : CABAC / 2 Ref Frames
Format settings, CABAC : Yes
Format settings, RefFrames : 2 frames
Codec ID : V_MPEG4/ISO/AVC
Duration : 42 min 0 s
Bit rate : 4 920 kb/s
Width : 1 920 pixels
Height : 1 080 pixels
Display aspect ratio : 16:9
Frame rate mode : Constant
Frame rate : 25.000 FPS
Original frame rate : 24.000 FPS
Color space : YUV
Chroma subsampling : 4:2:0
Bit depth : 8 bits
Scan type : Progressive
Bits/(Pixel*Frame) : 0.095
Stream size : 1.49 GiB (96%)
Writing library : x264 core 148 r2579M 73ae2d1
Encoding settings : cabac=1 / ref=2 / deblock=1:0:0 / analyse=0x3:0x113 / me=hex / subme=2 / psy=1 / psy_rd=1.00:0.00 / mixed_ref=0 / me_range=16 / chroma_me=1 / trellis=0 / 8x8dct=1 / cqm=0 / deadzone=21,11 / fast_pskip=1 / chroma_qp_offset=0 / threads=1 / lookahead_threads=1 / sliced_threads=0 / nr=250 / decimate=1 / interlaced=0 / bluray_compat=0 / stitchable=1 / constrained_intra=0 / bframes=0 / weightp=1 / keyint=250 / keyint_min=24 / scenecut=40 / intra_refresh=0 / rc_lookahead=10 / rc=2pass / mbtree=1 / bitrate=4920 / ratetol=1.0 / qcomp=0.60 / qpmin=5 / qpmax=69 / qpstep=4 / cplxblur=20.0 / qblur=0.5 / ip_ratio=1.40 / aq=1:1.00
Language : English
Default : Yes
Forced : Yes

Audio
ID : 2
Format : AC-3
Format/Info : Audio Coding 3
Format settings, Endianness : Big
Codec ID : A_AC3
Duration : 42 min 0 s
Bit rate mode : Constant
Bit rate : 192 kb/s
Channel(s) : 2 channels
Channel positions : Front: L R
Sampling rate : 48.0 kHz
Frame rate : 31.250 FPS (1536 SPF)
Bit depth : 16 bits
Compression mode : Lossy
Stream size : 57.7 MiB (4%)
Title : ITA
Language : Italian
Service kind : Complete Main
Default : Yes
Forced : Yes





Lethal Weapon S02E07


Lethal Weapon S02E07


Lethal Weapon S02E07


Lethal Weapon S02E07


Lethal Weapon S02E07

All episodes