Featured TV Shows


Living the Dream S01E02

Posted By: Tavaz
720p (HD) / HDTV IMDb
Living the Dream S01E02

Living the Dream S01E02
HDTV | MKV | 1280x720 | English | H264 @ 4237 kbps | AC-3 @ 384 kbps | 44 min 17 s | 1.43 GiB
Genre: Drama, Comedy

A British family, the Pembertons, decide it’s time to leave rainy England and move to the sunshine state of Florida. They've bought an RV Park with plans for a booming family-run business, but it soon turns out that they are not going to be living the dream they hoped.

living.the.dream.uk.s01e02.720p.hdtv.x264-failed-sample.mkv (62.0 MB)
living.the.dream.uk.s01e02.720p.hdtv.x264-failed.mkv (1.4 GB)



General
Unique ID : 237461065771849249033239322956882092649 (0xB2A55674CADD0E25BD1F44621E11A269)
Complete name : ./living.the.dream.uk.s01e02.720p.hdtv.x264-failed.mkv
Format : Matroska
Format version : Version 4 / Version 2
File size : 1.43 GiB
Duration : 44 min 17 s
Overall bit rate : 4 623 kb/s
Encoded date : UTC 2017-11-09 23:48:11
Writing application : mkvmerge v9.4.0 ('Knurl') 64bit
Writing library : libebml v1.3.4 + libmatroska v1.4.5

Video
ID : 1
Format : AVC
Format/Info : Advanced Video Codec
Format profile : High@L4.1
Format settings : CABAC / 5 Ref Frames
Format settings, CABAC : Yes
Format settings, RefFrames : 5 frames
Codec ID : V_MPEG4/ISO/AVC
Duration : 44 min 17 s
Bit rate : 4 238 kb/s
Width : 1 280 pixels
Height : 720 pixels
Display aspect ratio : 16:9
Frame rate mode : Constant
Frame rate : 25.000 FPS
Color space : YUV
Chroma subsampling : 4:2:0
Bit depth : 8 bits
Scan type : Progressive
Bits/(Pixel*Frame) : 0.184
Stream size : 1.31 GiB (92%)
Writing library : x264 core 152 r2851 ba24899
Encoding settings : cabac=1 / ref=5 / deblock=1:0:0 / analyse=0x3:0x113 / me=hex / subme=8 / psy=1 / psy_rd=1.00:0.00 / mixed_ref=1 / me_range=16 / chroma_me=1 / trellis=2 / 8x8dct=1 / cqm=0 / deadzone=21,11 / fast_pskip=1 / chroma_qp_offset=-2 / threads=18 / lookahead_threads=3 / sliced_threads=0 / nr=0 / decimate=1 / interlaced=0 / bluray_compat=0 / constrained_intra=0 / bframes=3 / b_pyramid=2 / b_adapt=1 / b_bias=0 / direct=3 / weightb=1 / open_gop=0 / weightp=2 / keyint=250 / keyint_min=25 / scenecut=40 / intra_refresh=0 / rc_lookahead=50 / rc=crf / mbtree=1 / crf=18.0 / qcomp=0.60 / qpmin=0 / qpmax=69 / qpstep=4 / ip_ratio=1.40 / aq=1:1.00
Default : Yes
Forced : No
Color range : Limited
Color primaries : BT.709
Transfer characteristics : BT.709
Matrix coefficients : BT.709

Audio
ID : 2
Format : AC-3
Format/Info : Audio Coding 3
Format settings, Endianness : Big
Codec ID : A_AC3
Duration : 44 min 17 s
Bit rate mode : Constant
Bit rate : 384 kb/s
Channel(s) : 2 channels
Channel positions : Front: L R
Sampling rate : 48.0 kHz
Frame rate : 31.250 FPS (1536 SPF)
Bit depth : 16 bits
Compression mode : Lossy
Delay relative to video : 14 ms
Stream size : 122 MiB (8%)
Language : English
Service kind : Complete Main
Default : Yes
Forced : No





Living the Dream S01E02


Living the Dream S01E02


Living the Dream S01E02


Living the Dream S01E02


Living the Dream S01E02

All episodes