Index
# A B C D E F G H I J K L M N O P Q R S T U V W Y Z
Tags
Language
Tags

Featured TV Shows


Marvel's M.O.D.O.K. S01E05

Posted By: Tavaz
1080p (FullHD) / WEBRip IMDb
Marvel's M.O.D.O.K. S01E05

Marvel's M.O.D.O.K. S01E05
WEBRip | MKV | 1920x1080 | Français / English | H264 @ 6215 kbps | E-AC-3 @ 256 kbps | 24 min 13 s | 1.14 GiB
Subtitles: Français, English
Genre: Comedy, Animation


The megalomaniacal supervillain M.O.D.O.K. has long pursued his dream of one day conquering the world. But after years of setbacks and failures fighting the Earth’s mightiest heroes, M.O.D.O.K. has run his evil organization A.I.M. into the ground. Ousted as A.I.M.’s leader, while also dealing with his crumbling marriage and family life, the Mental Organism Designed Only for Killing is set to confront his greatest challenge yet: a midlife crisis!

37620faa683f4b1ba3652707166d2da7.mkv (1.1 GB)



General
Unique ID : 199131342729286624444823071376827299003 (0x95CF4D348866342BED76C65D6E0534BB)
Complete name : ./37620faa683f4b1ba3652707166d2da7.mkv
Format : Matroska
Format version : Version 4 / Version 2
File size : 1.14 GiB
Duration : 24 min 13 s
Overall bit rate mode : Variable
Overall bit rate : 6 729 kb/s
Encoded date : UTC 2021-06-18 08:46:36
Writing application : mkvmerge v58.0.0 ('Supper's Ready') 64-bit
Writing library : libebml v1.4.2 + libmatroska v1.6.4

Video
ID : 1
Format : AVC
Format/Info : Advanced Video Codec
Format profile : High@L4
Format settings : CABAC / 4 Ref Frames
Format settings, CABAC : Yes
Format settings, RefFrames : 4 frames
Codec ID : V_MPEG4/ISO/AVC
Duration : 24 min 13 s
Bit rate mode : Variable
Bit rate : 6 216 kb/s
Maximum bit rate : 12.7 Mb/s
Width : 1 920 pixels
Height : 1 080 pixels
Display aspect ratio : 16:9
Frame rate mode : Constant
Frame rate : 23.976 (24000/1001) FPS
Color space : YUV
Chroma subsampling : 4:2:0
Bit depth : 8 bits
Scan type : Progressive
Bits/(Pixel*Frame) : 0.125
Stream size : 1.05 GiB (92%)
Default : Yes
Forced : No
Color range : Limited
Color primaries : BT.709
Transfer characteristics : BT.709
Matrix coefficients : BT.709

Audio #1
ID : 2
Format : E-AC-3
Format/Info : Enhanced Audio Coding 3
Format settings, Endianness : Big
Codec ID : A_EAC3
Duration : 24 min 13 s
Bit rate mode : Constant
Bit rate : 256 kb/s
Channel(s) : 6 channels
Channel positions : Front: L C R, Side: L R, LFE
Sampling rate : 48.0 kHz
Frame rate : 187.500 FPS (256 SPF)
Compression mode : Lossy
Stream size : 44.4 MiB (4%)
Title : French
Language : French
Service kind : Complete Main
Default : Yes
Forced : No

Audio #2
ID : 3
Format : E-AC-3
Format/Info : Enhanced Audio Coding 3
Format settings, Endianness : Big
Codec ID : A_EAC3
Duration : 24 min 13 s
Bit rate mode : Constant
Bit rate : 256 kb/s
Channel(s) : 6 channels
Channel positions : Front: L C R, Side: L R, LFE
Sampling rate : 48.0 kHz
Frame rate : 187.500 FPS (256 SPF)
Compression mode : Lossy
Stream size : 44.4 MiB (4%)
Title : English
Language : English
Service kind : Complete Main
Default : No
Forced : No

Text #1
ID : 4
Format : UTF-8
Codec ID : S_TEXT/UTF8
Codec ID/Info : UTF-8 Plain Text
Duration : 14 min 57 s
Bit rate : 1 b/s
Count of elements : 6
Stream size : 155 Bytes (0%)
Title : French (Forced)
Language : French
Default : Yes
Forced : Yes

Text #2
ID : 5
Format : UTF-8
Codec ID : S_TEXT/UTF8
Codec ID/Info : UTF-8 Plain Text
Duration : 22 min 47 s
Bit rate : 113 b/s
Count of elements : 447
Stream size : 19.0 KiB (0%)
Title : French
Language : French
Default : No
Forced : No

Text #3
ID : 6
Format : UTF-8
Codec ID : S_TEXT/UTF8
Codec ID/Info : UTF-8 Plain Text
Duration : 22 min 21 s
Bit rate : 117 b/s
Count of elements : 475
Stream size : 19.3 KiB (0%)
Title : English (SDH)
Language : English
Default : No
Forced : No





Marvel's M.O.D.O.K. S01E05


Marvel's M.O.D.O.K. S01E05


Marvel's M.O.D.O.K. S01E05


Marvel's M.O.D.O.K. S01E05


Marvel's M.O.D.O.K. S01E05

All episodes