Featured TV Shows


Masterchef: The Professionals S10E21

Posted By: Tavaz
SD / WEB-DL IMDb
Masterchef: The Professionals S10E21

Masterchef: The Professionals S10E21
WEB-DL | MOV | 704x396 | English | H264 @ 823 kbps | AAC @ 317 kbps | 59 min 16 s | 486 MiB

The hunt for a young chef who wants to make it to the top of the culinary world.

MasterChef.The.Professionals.S10E21.FINALE.WEB-DL.x264-JIVE.mp4 (485.7 MB)



General
Complete name : ./MasterChef.The.Professionals.S10E21.FINALE.WEB-DL.x264-JIVE.mp4
Format : MPEG-4
Format profile : Base Media
Codec ID : isom (isom/iso2/avc1/mp41)
File size : 486 MiB
Duration : 59 min 16 s
Overall bit rate : 1 146 kb/s
Collection : MasterChef: The Professionals: Series 10
Season : 10
Album : MasterChef: The Professionals: Series 10
Album/Performer : BBC TV
Part : 21
Part/Position : 10
Track name : Masterchef The Professionals S10E21
Track name/Position : 21
Grouping : Factual,Food & Drink
Performer : BBC Two
Composer : BBC iPlayer
Genre : Factual
ContentType : TV Show
Description : Just one almighty cook off remains before one chef is crowned 2017 champion.
Recorded date : UTC 2017-12-21 20:00:00
Tagged date : UTC 2017-12-21 21:05:29
Writing application : Lavf57.83.100
Copyright : 2017 British Broadcasting Corporation, all rights reserved
Cover : Yes
Lyrics : Tonight is the final of MasterChef: The Professionals 2017. MasterChef presenter Gregg Wallace and two of Britain's leading chefs, Michelin-starred chef Marcus Wareing and Monica Galetti are edging closer to finding the 2017 champion. Just one almighty cook off remains for them to assess the talent of the finalists. / / Over the last seven weeks, 48 of the most talented and tenacious chefs in the UK have battled each other for the coveted title. Now, just three chefs remain. This is the last time they cook in the competition and the evening ends with one of them receiving the hard-won title. / / Tonight the final three outstanding professionals, who have created some incredible plates of food throughout the competition, face one final challenge: to cook the best three courses of their lives for the judges. They return for the final time to the MasterChef kitchen and spend three hours creating a three-course menu of starter, main and dessert which showcases their exceptional culinary abilities. This is the moment where everything is laid bare for the judges, as their plates will expose everything they have learned over the last seven weeks. They can't falter as they battle to display everything they have to give - their talent for flavour and creativity, their ability to remain calm and controlled under immense pressure and to flawlessly deliver three plates of incredible food. The reward is immeasurable as their career could change forever when one of them is crowned MasterChef: The Professionals Champion 2017. / / EPISODE / http://www.bbc.co.uk/iplayer/episode/b09k9rvk / / SERIES / http://www.bbc.co.uk/programmes/b09fg2hs
Comment : {name}
LongDescription : Tonight is the final of MasterChef: The Professionals 2017. MasterChef presenter Gregg Wallace and two of Britain's leading chefs, Michelin-starred chef Marcus Wareing and Monica Galetti are edging closer to finding the 2017 champion. Just one almighty cook off remains for them to assess the talent of the finalists. / / Over the last seven weeks, 48 of the most talented and tenacious chefs in the UK have battled each other for the coveted title. Now, just three chefs remain. This is the last time they cook in the competition and the evening ends with one of them receiving the hard-won title. / / Tonight the final three outstanding professionals, who have created some incredible plates of food throughout the competition, face one final challenge: to cook the best three courses of their lives for the judges. They return for the final time to the MasterChef kitchen and spend three hours creating a three-course menu of starter, main and dessert which showcases their exceptional culinary abilities. This is the moment where everything is laid bare for the judges, as their plates will expose everything they have learned over the last seven weeks. They can't falter as they battle to display everything they have to give - their talent for flavour and creativity, their ability to remain calm and controlled under immense pressure and to flawlessly deliver three plates of incredible food. The reward is immeasurable as their career could change forever when one of them is crowned MasterChef: The Professionals Champion 2017.
Part_ID : s10e21
TVNetworkName : BBC Two

Video
ID : 1
Format : AVC
Format/Info : Advanced Video Codec
Format profile : Main@L3
Format settings : CABAC / 4 Ref Frames
Format settings, CABAC : Yes
Format settings, RefFrames : 4 frames
Format settings, GOP : M=8, N=96
Codec ID : avc1
Codec ID/Info : Advanced Video Coding
Duration : 59 min 16 s
Bit rate : 823 kb/s
Width : 704 pixels
Height : 396 pixels
Display aspect ratio : 16:9
Frame rate mode : Constant
Frame rate : 25.000 FPS
Color space : YUV
Chroma subsampling : 4:2:0
Bit depth : 8 bits
Scan type : Progressive
Bits/(Pixel*Frame) : 0.118
Stream size : 349 MiB (72%)
Color range : Limited
Color primaries : BT.709
Transfer characteristics : BT.709
Matrix coefficients : BT.709

Audio
ID : 2
Format : AAC
Format/Info : Advanced Audio Codec
Format profile : LC
Codec ID : mp4a-40-2
Duration : 59 min 15 s
Bit rate mode : Constant
Bit rate : 317 kb/s
Channel(s) : 2 channels
Channel positions : Front: L R
Sampling rate : 48.0 kHz
Frame rate : 46.875 FPS (1024 SPF)
Compression mode : Lossy
Stream size : 135 MiB (28%)
Language : English
Default : Yes
Alternate group : 1





Masterchef: The Professionals S10E21


Masterchef: The Professionals S10E21


Masterchef: The Professionals S10E21


Masterchef: The Professionals S10E21


Masterchef: The Professionals S10E21

All episodes