Masterchef: The Professionals S10E20

Posted By: Tavaz
720p (HD) / WEB-DL IMDb
Masterchef: The Professionals S10E20

Masterchef: The Professionals S10E20
WEB-DL | MKV | 1280x720 | English | H264 @ 2292 kbps | AAC @ 93 kbps | 59 min 16 s | 1 013 MiB
Subtitles: English

The hunt for a young chef who wants to make it to the top of the culinary world.

2b78d15c65db4ab5b010fb33683b94ee.mkv (1012.5 MB)



General
Complete name : ./2b78d15c65db4ab5b010fb33683b94ee.mkv
Format : Matroska
Format version : Version 4 / Version 2
File size : 1 013 MiB
Duration : 59 min 16 s
Overall bit rate mode : Variable
Overall bit rate : 2 388 kb/s
Encoded date : UTC 2017-12-20 21:10:22
Writing application : mkvmerge v19.0.0 ('Brave Captain') 64-bit
Writing library : libebml v1.3.5 + libmatroska v1.4.8

Video
ID : 1
Format : AVC
Format/Info : Advanced Video Codec
Format profile : High@L4.1
Format settings : CABAC / 2 Ref Frames
Format settings, CABAC : Yes
Format settings, RefFrames : 2 frames
Codec ID : V_MPEG4/ISO/AVC
Duration : 59 min 16 s
Bit rate mode : Variable
Bit rate : 2 293 kb/s
Maximum bit rate : 3 500 kb/s
Width : 1 280 pixels
Height : 720 pixels
Display aspect ratio : 16:9
Frame rate mode : Constant
Frame rate : 25.000 FPS
Color space : YUV
Chroma subsampling : 4:2:0
Bit depth : 8 bits
Scan type : Progressive
Bits/(Pixel*Frame) : 0.100
Stream size : 972 MiB (96%)
Language : English
Default : Yes
Forced : No

Audio
ID : 2
Format : AAC
Format/Info : Advanced Audio Codec
Format profile : LC
Codec ID : A_AAC-2
Duration : 59 min 15 s
Bit rate : 93.4 kb/s
Channel(s) : 2 channels
Channel positions : Front: L R
Sampling rate : 48.0 kHz
Frame rate : 46.875 FPS (1024 SPF)
Compression mode : Lossy
Delay relative to video : -40 ms
Stream size : 39.6 MiB (4%)
Language : English
Default : Yes
Forced : No

Text
ID : 3
Format : UTF-8
Codec ID : S_TEXT/UTF8
Codec ID/Info : UTF-8 Plain Text
Duration : 58 min 39 s
Bit rate : 90 b/s
Count of elements : 985
Stream size : 38.8 KiB (0%)
Language : English
Default : No
Forced : No





Masterchef: The Professionals S10E20


Masterchef: The Professionals S10E20


Masterchef: The Professionals S10E20


Masterchef: The Professionals S10E20


Masterchef: The Professionals S10E20

All episodes