Featured TV Shows


One Day at a Time S04E06

Posted By: Tavaz
1080p (FullHD) / WEB-DL IMDb
One Day at a Time S04E06

One Day at a Time S04E06
WEB-DL | MKV | 1920x1080 | English | H264 @ 5741 kbps | AAC @ 63 kbps | 21 min 11 s | 880 MiB
Subtitles: English
Genre: Comedy


In a reimagining of the TV classic, a newly single Latina mother raises her teen daughter and tween son with the "help" of her old-school mom.

692db3c50fa94d6cb45cc810d8c0efde.mkv (880.0 MB)



General
Unique ID : 146226122441724344483070239293603324766 (0x6E0220750FB791F25988B1A9652C235E)
Complete name : ./692db3c50fa94d6cb45cc810d8c0efde.mkv
Format : Matroska
Format version : Version 4 / Version 2
File size : 880 MiB
Duration : 21 min 11 s
Overall bit rate : 5 807 kb/s
Encoded date : UTC 2020-07-31 09:04:59
Writing application : mkvmerge v47.0.0 ('Black Flag') 64-bit
Writing library : libebml v1.3.10 + libmatroska v1.5.2

Video
ID : 1
Format : AVC
Format/Info : Advanced Video Codec
Format profile : High@L4
Format settings : CABAC / 4 Ref Frames
Format settings, CABAC : Yes
Format settings, RefFrames : 4 frames
Codec ID : V_MPEG4/ISO/AVC
Duration : 21 min 11 s
Bit rate : 5 741 kb/s
Width : 1 920 pixels
Height : 1 080 pixels
Display aspect ratio : 16:9
Frame rate mode : Constant
Frame rate : 29.970 (30000/1001) FPS
Color space : YUV
Chroma subsampling : 4:2:0
Bit depth : 8 bits
Scan type : Progressive
Bits/(Pixel*Frame) : 0.092
Stream size : 870 MiB (99%)
Default : Yes
Forced : No

Audio
ID : 2
Format : AAC
Format/Info : Advanced Audio Codec
Format profile : HE-AAC / LC
Format settings : Explicit
Codec ID : A_AAC-2
Duration : 21 min 11 s
Bit rate : 64.0 kb/s
Channel(s) : 2 channels
Channel positions : Front: L R
Sampling rate : 48.0 kHz / 24.0 kHz
Frame rate : 23.438 FPS (1024 SPF)
Compression mode : Lossy
Stream size : 9.70 MiB (1%)
Language : English
Default : Yes
Forced : No

Text
ID : 3
Format : UTF-8
Codec ID : S_TEXT/UTF8
Codec ID/Info : UTF-8 Plain Text
Duration : 21 min 5 s
Bit rate : 87 b/s
Count of elements : 403
Stream size : 13.6 KiB (0%)
Language : English
Default : No
Forced : No





One Day at a Time S04E06


One Day at a Time S04E06


One Day at a Time S04E06


One Day at a Time S04E06


One Day at a Time S04E06

All episodes