Featured TV Shows


One Day at a Time S04E07

Posted By: Tavaz
1080p (FullHD) / WEB-DL IMDb
One Day at a Time S04E07

One Day at a Time S04E07
WEB-DL | MKV | 1920x1080 | English | H264 @ 4140 kbps | AAC @ 64 kbps | 21 min 20 s | 642 MiB
Subtitles: English
Genre: Comedy


In a reimagining of the TV classic, a newly single Latina mother raises her teen daughter and tween son with the "help" of her old-school mom.

8d5378ff448f42b696da9756525e5014.mkv (642.0 MB)



General
Unique ID : 214953714733221827854726715642941805224 (0xA1B6945FC2D7338C5CE4300641BC12A8)
Complete name : ./8d5378ff448f42b696da9756525e5014.mkv
Format : Matroska
Format version : Version 4 / Version 2
File size : 642 MiB
Duration : 21 min 20 s
Overall bit rate : 4 206 kb/s
Encoded date : UTC 2020-07-31 09:05:38
Writing application : mkvmerge v47.0.0 ('Black Flag') 64-bit
Writing library : libebml v1.3.10 + libmatroska v1.5.2

Video
ID : 1
Format : AVC
Format/Info : Advanced Video Codec
Format profile : High@L4
Format settings : CABAC / 4 Ref Frames
Format settings, CABAC : Yes
Format settings, RefFrames : 4 frames
Codec ID : V_MPEG4/ISO/AVC
Duration : 21 min 20 s
Bit rate : 4 140 kb/s
Width : 1 920 pixels
Height : 1 080 pixels
Display aspect ratio : 16:9
Frame rate mode : Constant
Frame rate : 29.970 (30000/1001) FPS
Color space : YUV
Chroma subsampling : 4:2:0
Bit depth : 8 bits
Scan type : Progressive
Bits/(Pixel*Frame) : 0.067
Stream size : 632 MiB (98%)
Default : Yes
Forced : No

Audio
ID : 2
Format : AAC
Format/Info : Advanced Audio Codec
Format profile : HE-AAC / LC
Format settings : Explicit
Codec ID : A_AAC-2
Duration : 21 min 20 s
Bit rate : 64.0 kb/s
Channel(s) : 2 channels
Channel positions : Front: L R
Sampling rate : 48.0 kHz / 24.0 kHz
Frame rate : 23.438 FPS (1024 SPF)
Compression mode : Lossy
Stream size : 9.77 MiB (2%)
Language : English
Default : Yes
Forced : No

Text
ID : 3
Format : UTF-8
Codec ID : S_TEXT/UTF8
Codec ID/Info : UTF-8 Plain Text
Duration : 16 min 57 s
Bit rate : 150 b/s
Count of elements : 509
Stream size : 18.7 KiB (0%)
Language : English
Default : No
Forced : No





One Day at a Time S04E07


One Day at a Time S04E07


One Day at a Time S04E07


One Day at a Time S04E07


One Day at a Time S04E07

All episodes