Featured TV Shows


Our Cartoon President S02E04

Posted By: Tavaz
720p (HD) / WEBRip IMDb
Our Cartoon President S02E04

Our Cartoon President S02E04
WEBRip | MKV | 1280x720 | English | H264 @ 1962 kbps | E-AC-3 @ 224 kbps | 26 min 31 s | 415 MiB
Subtitles: English
Genre: Animation, Comedy


A hilarious look into the Trump presidency, animation style. Starring two-dimensional avatars of Donald Trump and his merry band of insiders and family members, this cutting-edge comedy presents the truish adventures of Trump, his confidants and bon vivants through the eyes of an imaginary documentary crew.

bc08ce7d8da14259859779badc5162c4.mkv (415.0 MB)



General
Unique ID : 77986126241093025270483577152856043197 (0x3AAB94E242791302ABD66DF26F92AEBD)
Complete name : ./bc08ce7d8da14259859779badc5162c4.mkv
Format : Matroska
Format version : Version 4 / Version 2
File size : 415 MiB
Duration : 26 min 31 s
Overall bit rate : 2 188 kb/s
Encoded date : UTC 2019-06-03 00:33:54
Writing application : mkvmerge v33.1.0 ('Primrose') 64-bit
Writing library : libebml v1.3.7 + libmatroska v1.5.0

Video
ID : 1
Format : AVC
Format/Info : Advanced Video Codec
Format profile : High@L3.1
Format settings : CABAC / 4 Ref Frames
Format settings, CABAC : Yes
Format settings, RefFrames : 4 frames
Codec ID : V_MPEG4/ISO/AVC
Duration : 26 min 31 s
Bit rate mode : Constant
Bit rate : 1 962 kb/s
Nominal bit rate : 6 000 kb/s
Width : 1 280 pixels
Height : 720 pixels
Display aspect ratio : 16:9
Frame rate mode : Constant
Frame rate : 23.976 (24000/1001) FPS
Color space : YUV
Chroma subsampling : 4:2:0
Bit depth : 8 bits
Scan type : Progressive
Bits/(Pixel*Frame) : 0.089
Stream size : 372 MiB (90%)
Language : English
Default : Yes
Forced : No
Color range : Limited
Color primaries : BT.709
Transfer characteristics : BT.709
Matrix coefficients : BT.709

Audio
ID : 2
Format : E-AC-3
Format/Info : Enhanced Audio Coding 3
Format settings, Endianness : Big
Codec ID : A_EAC3
Duration : 26 min 31 s
Bit rate mode : Constant
Bit rate : 224 kb/s
Channel(s) : 2 channels
Channel positions : Front: L R
Sampling rate : 48.0 kHz
Frame rate : 187.500 FPS (256 SPF)
Compression mode : Lossy
Delay relative to video : 18 ms
Stream size : 42.5 MiB (10%)
Language : English
Service kind : Complete Main
Default : Yes
Forced : No

Text
ID : 3
Format : UTF-8
Codec ID : S_TEXT/UTF8
Codec ID/Info : UTF-8 Plain Text
Duration : 26 min 15 s
Bit rate : 124 b/s
Count of elements : 664
Stream size : 24.0 KiB (0%)
Language : English
Default : No
Forced : No





Our Cartoon President S02E04


Our Cartoon President S02E04


Our Cartoon President S02E04


Our Cartoon President S02E04


Our Cartoon President S02E04

All episodes