Patriot S02E05

Posted By: Tavaz
720p (HD) / WEBRip IMDb
Patriot S02E05

Patriot S02E05
WEBRip | MKV | 1280x720 | English | H264 @ 1090 kbps | E-AC-3 @ 640 kbps | 38 min 23 s | 476 MiB
Subtitles: English
Genre: Comedy, Drama

To prevent Iran from going nuclear, intelligence officer John Tavner must forgo all safety nets and assume a perilous "non-official cover" – that of a mid-level employee at a Midwestern industrial piping firm.

5647e98a89cb4f9b869076cb7000ccad.mkv (475.7 MB)



General
Unique ID : 225415736045591654067915422415413221266 (0xA9957DD968641ACD88E50363350E9792)
Complete name : ./5647e98a89cb4f9b869076cb7000ccad.mkv
Format : Matroska
Format version : Version 4 / Version 2
File size : 476 MiB
Duration : 38 min 23 s
Overall bit rate : 1 732 kb/s
Encoded date : UTC 2018-11-08 21:42:33
Writing application : mkvmerge v25.0.0 ('Prog Noir') 32-bit
Writing library : libebml v1.3.6 + libmatroska v1.4.9

Video
ID : 1
Format : AVC
Format/Info : Advanced Video Codec
Format profile : High@L3.1
Format settings : CABAC / 5 Ref Frames
Format settings, CABAC : Yes
Format settings, RefFrames : 5 frames
Codec ID : V_MPEG4/ISO/AVC
Duration : 38 min 23 s
Bit rate : 1 090 kb/s
Width : 1 280 pixels
Height : 720 pixels
Display aspect ratio : 16:9
Frame rate mode : Constant
Frame rate : 23.976 (24000/1001) FPS
Color space : YUV
Chroma subsampling : 4:2:0
Bit depth : 8 bits
Scan type : Progressive
Bits/(Pixel*Frame) : 0.049
Stream size : 299 MiB (63%)
Default : Yes
Forced : No
Color range : Limited
Color primaries : BT.709
Transfer characteristics : BT.709
Matrix coefficients : BT.709

Audio
ID : 2
Format : E-AC-3
Format/Info : Enhanced Audio Coding 3
Format settings, Endianness : Big
Codec ID : A_EAC3
Duration : 38 min 23 s
Bit rate mode : Constant
Bit rate : 640 kb/s
Channel(s) : 6 channels
Channel positions : Front: L C R, Side: L R, LFE
Sampling rate : 48.0 kHz
Frame rate : 187.500 FPS (256 SPF)
Compression mode : Lossy
Stream size : 176 MiB (37%)
Title : English
Language : English
Service kind : Complete Main
Default : Yes
Forced : No

Text
ID : 3
Format : UTF-8
Codec ID : S_TEXT/UTF8
Codec ID/Info : UTF-8 Plain Text
Duration : 37 min 22 s
Bit rate : 51 b/s
Count of elements : 546
Stream size : 14.1 KiB (0%)
Title : English [SDH]
Language : English
Default : No
Forced : No

Menu
00:00:00.000 : en:Amazon Original
00:00:05.000 : en:Agathe and Sophie meet
00:03:39.000 : en:Opening Credits
00:05:03.000 : en:Lakeman in Paris
00:10:28.000 : en:Keeping track of jellyfish
00:12:05.000 : en:Lakeman goes to the store for pain medication
00:19:07.000 : en:John talks to HR
00:25:21.000 : en:The worst thing you've ever done
00:29:34.000 : en:Bachelor party in Paris
00:36:39.000 : en:End Credits





Patriot S02E05


Patriot S02E05


Patriot S02E05


Patriot S02E05


Patriot S02E05

All episodes