Patriot S02E08

Posted By: Tavaz
720p (HD) / WEBRip IMDb
Patriot S02E08

Patriot S02E08
WEBRip | MKV | 1280x720 | English | H264 @ 958 kbps | E-AC-3 @ 640 kbps | 53 min 9 s | 608 MiB
Subtitles: English
Genre: Comedy, Drama

To prevent Iran from going nuclear, intelligence officer John Tavner must forgo all safety nets and assume a perilous "non-official cover" – that of a mid-level employee at a Midwestern industrial piping firm.

40296553f47e47f1b66a64b1f72d55f4.mkv (608.4 MB)



General
Unique ID : 188040195831287764187038483129961685221 (0x8D7739719F5BE4D0D1090ECEEDC220E5)
Complete name : ./40296553f47e47f1b66a64b1f72d55f4.mkv
Format : Matroska
Format version : Version 4 / Version 2
File size : 608 MiB
Duration : 53 min 9 s
Overall bit rate : 1 600 kb/s
Encoded date : UTC 2018-11-08 21:45:47
Writing application : mkvmerge v25.0.0 ('Prog Noir') 32-bit
Writing library : libebml v1.3.6 + libmatroska v1.4.9

Video
ID : 1
Format : AVC
Format/Info : Advanced Video Codec
Format profile : High@L3.1
Format settings : CABAC / 5 Ref Frames
Format settings, CABAC : Yes
Format settings, RefFrames : 5 frames
Codec ID : V_MPEG4/ISO/AVC
Duration : 53 min 9 s
Bit rate : 958 kb/s
Width : 1 280 pixels
Height : 720 pixels
Display aspect ratio : 16:9
Frame rate mode : Constant
Frame rate : 23.976 (24000/1001) FPS
Color space : YUV
Chroma subsampling : 4:2:0
Bit depth : 8 bits
Scan type : Progressive
Bits/(Pixel*Frame) : 0.043
Stream size : 364 MiB (60%)
Default : Yes
Forced : No
Color range : Limited
Color primaries : BT.709
Transfer characteristics : BT.709
Matrix coefficients : BT.709

Audio
ID : 2
Format : E-AC-3
Format/Info : Enhanced Audio Coding 3
Format settings, Endianness : Big
Codec ID : A_EAC3
Duration : 53 min 9 s
Bit rate mode : Constant
Bit rate : 640 kb/s
Channel(s) : 6 channels
Channel positions : Front: L C R, Side: L R, LFE
Sampling rate : 48.0 kHz
Frame rate : 187.500 FPS (256 SPF)
Compression mode : Lossy
Stream size : 243 MiB (40%)
Title : English
Language : English
Service kind : Complete Main
Default : Yes
Forced : No

Text
ID : 3
Format : UTF-8
Codec ID : S_TEXT/UTF8
Codec ID/Info : UTF-8 Plain Text
Duration : 51 min 1 s
Bit rate : 47 b/s
Count of elements : 667
Stream size : 17.9 KiB (0%)
Title : English [SDH]
Language : English
Default : No
Forced : No

Menu
00:00:00.000 : en:Amazon Original
00:00:05.000 : en:I'm so sorry
00:08:21.000 : en:Opening Credits
00:09:46.000 : en:Sunday Morning
00:12:39.000 : en:Checking on Charlie
00:14:14.000 : en:Getaway car
00:17:01.000 : en:Tom is brought in for questioning
00:24:12.000 : en:Travelling North
00:29:01.000 : en:Passing through Calais
00:34:31.000 : en:The boat
00:38:27.000 : en:Reassurance
00:42:41.000 : en:Pretty Good
00:45:17.000 : en:You're in England
00:51:26.000 : en:End Credits





Patriot S02E08


Patriot S02E08


Patriot S02E08


Patriot S02E08


Patriot S02E08

All episodes