Patriot S02E07

Posted By: Tavaz
720p (HD) / WEBRip IMDb
Patriot S02E07

Patriot S02E07
WEBRip | MKV | 1280x720 | English | H264 @ 702 kbps | E-AC-3 @ 640 kbps | 37 min 52 s | 364 MiB
Subtitles: English
Genre: Comedy, Drama

To prevent Iran from going nuclear, intelligence officer John Tavner must forgo all safety nets and assume a perilous "non-official cover" – that of a mid-level employee at a Midwestern industrial piping firm.

patriot.s02e07.720p.web.h264-skgtv.mkv (364.2 MB)



General
Unique ID : 133719292431339399573519179904916222788 (0x649966212A98C30BBA1C3FB0E0417344)
Complete name : ./patriot.s02e07.720p.web.h264-skgtv.mkv
Format : Matroska
Format version : Version 4 / Version 2
File size : 364 MiB
Duration : 37 min 52 s
Overall bit rate : 1 344 kb/s
Encoded date : UTC 2018-11-08 21:44:21
Writing application : mkvmerge v25.0.0 ('Prog Noir') 32-bit
Writing library : libebml v1.3.6 + libmatroska v1.4.9

Video
ID : 1
Format : AVC
Format/Info : Advanced Video Codec
Format profile : High@L3.1
Format settings : CABAC / 5 Ref Frames
Format settings, CABAC : Yes
Format settings, RefFrames : 5 frames
Codec ID : V_MPEG4/ISO/AVC
Duration : 37 min 52 s
Bit rate : 702 kb/s
Width : 1 280 pixels
Height : 720 pixels
Display aspect ratio : 16:9
Frame rate mode : Constant
Frame rate : 23.976 (24000/1001) FPS
Color space : YUV
Chroma subsampling : 4:2:0
Bit depth : 8 bits
Scan type : Progressive
Bits/(Pixel*Frame) : 0.032
Stream size : 190 MiB (52%)
Default : Yes
Forced : No
Color range : Limited
Color primaries : BT.709
Transfer characteristics : BT.709
Matrix coefficients : BT.709

Audio
ID : 2
Format : E-AC-3
Format/Info : Enhanced Audio Coding 3
Format settings, Endianness : Big
Codec ID : A_EAC3
Duration : 37 min 52 s
Bit rate mode : Constant
Bit rate : 640 kb/s
Channel(s) : 6 channels
Channel positions : Front: L C R, Side: L R, LFE
Sampling rate : 48.0 kHz
Frame rate : 187.500 FPS (256 SPF)
Compression mode : Lossy
Stream size : 173 MiB (48%)
Title : English
Language : English
Service kind : Complete Main
Default : Yes
Forced : No

Text
ID : 3
Format : UTF-8
Codec ID : S_TEXT/UTF8
Codec ID/Info : UTF-8 Plain Text
Duration : 37 min 15 s
Bit rate : 43 b/s
Count of elements : 433
Stream size : 11.8 KiB (0%)
Title : English [SDH]
Language : English
Default : No
Forced : No

Menu
00:00:00.000 : en:Amazon Original
00:00:05.000 : en:Tea man or a pint man
00:06:18.000 : en:Opening Credits
00:07:40.000 : en:John sings a song for Myna
00:15:48.000 : en:Tom and Bernice talk about smoking on the weed
00:28:26.000 : en:Bernice offers advice
00:32:38.000 : en:John asks Leslie for a favor
00:36:09.000 : en:End Credits





Patriot S02E07


Patriot S02E07


Patriot S02E07


Patriot S02E07


Patriot S02E07

All episodes