Prison Break S05E01

Posted By: Tavaz
SD / HDTV IMDb
Prison Break S05E01

Prison Break S05E01
HDTV | AVI | 720x404 | MP4V-ES @ 1059 kbps | MPEG Audio @ 128 kbps | 40 min 51 s | 351 MiB
Genre: Crime, Drama

Due to a political conspiracy, an innocent man is sent to death row and his only hope is his brother, who makes it his mission to deliberately get himself sent to the same prison in order to break the both of them out, from the inside out.

Prison.Break.S05E04.FRENCH.HDTV.XviD-ZT.WwW.Zone-Telechargement.Ws.avi (350.5 MB)
Prison.Break.S05E09.FiNAL.FRENCH.HDTV.XviD-ZT.WwW.Zone-Telechargement.Ws.avi (350.6 MB)
Prison.Break.S05E08.FRENCH.HDTV.XviD-ZT.WwW.Zone-Telechargement.Ws.avi (350.6 MB)
Prison.Break.S05E03.FRENCH.LD.HDTV.XviD-NEWZT.WwW.Zone-Telechargement.Ws.avi (350.5 MB)
Prison.Break.S05E07.FRENCH.HDTV.XviD-ZT.WwW.Zone-Telechargement.Ws.avi (350.6 MB)
Prison.Break.S05E01.FRENCH.LD.HDTV.XviD-NEWZT.WwW.Zone-Telechargement.Ws.avi (350.2 MB)
Prison.Break.S05E06.FRENCH.HDTV.XviD-ZT.WwW.Zone-Telechargement.Ws.avi (350.6 MB)
Prison.Break.S05E02.FRENCH.LD.HDTV.XviD-NEWZT.WwW.Zone-Telechargement.Ws.avi (350.4 MB)
Prison.Break.S05E05.FRENCH.HDTV.XviD-ZT.WwW.Zone-Telechargement.Ws.avi (350.6 MB)



General
Complete name : ./Prison.Break.S05E09.FiNAL.FRENCH.HDTV.XviD-ZT.WwW.Zone-Telechargement.Ws.avi
Format : AVI
Format/Info : Audio Video Interleave
File size : 351 MiB
Duration : 40 min 51 s
Overall bit rate : 1 200 kb/s
Writing application : Lavf57.25.100

Video
ID : 0
Format : MPEG-4 Visual
Format profile : Advanced Simple@L5
Format settings : BVOP2
Format settings, BVOP : 2
Format settings, QPel : No
Format settings, GMC : No warppoints
Format settings, Matrix : Default (H.263)
Muxing mode : Packed bitstream
Codec ID : XVID
Codec ID/Hint : XviD
Duration : 40 min 51 s
Bit rate : 1 059 kb/s
Width : 720 pixels
Height : 404 pixels
Display aspect ratio : 16:9
Frame rate : 25.000 FPS
Color space : YUV
Chroma subsampling : 4:2:0
Bit depth : 8 bits
Scan type : Progressive
Compression mode : Lossy
Bits/(Pixel*Frame) : 0.146
Stream size : 309 MiB (88%)
Writing library : XviD 67

Audio
ID : 1
Format : MPEG Audio
Format version : Version 1
Format profile : Layer 3
Codec ID : 55
Codec ID/Hint : MP3
Duration : 40 min 51 s
Bit rate mode : Constant
Bit rate : 128 kb/s
Channel(s) : 2 channels
Sampling rate : 48.0 kHz
Compression mode : Lossy
Stream size : 37.4 MiB (11%)
Alignment : Aligned on interleaves
Interleave, duration : 24 ms (0.60 video frame)
Interleave, preload duration : 24 ms





Prison Break S05E01


Prison Break S05E01


Prison Break S05E01


Prison Break S05E01


Prison Break S05E01

All episodes