Featured TV Shows


QI S15E11

Posted By: Tavaz
720p (HD) / WEB-DL IMDb
QI S15E11

QI S15E11
WEB-DL | MKV | 1280x720 | English | H264 @ 5064 kbps | AAC @ 317 kbps | 29 min 30 s | 1.11 GiB
Genre: Comedy

QI is a British comedy panel game television quiz show created and co-produced by John Lloyd, hosted by Stephen Fry, and featuring permanent panellist Alan Davies. Most of the questions are extremely obscure, making it unlikely that the correct answer will be given. To compensate, points are also awarded for interesting answers, regardless of whether they are right or even relate to the original question. Points are also deducted from a panellist who gives answers which are wrong, pathetically obvious, or obviously a joke. The show makes use of a loud siren and flashing lights, as a form of humiliation.

d26028351f794631b798d75542b59072.mkv (1.1 GB)



General
Unique ID : 79635162771481560389050450842214577099 (0x3BE92CA9761A2EA302C7B47F22C5B3CB)
Complete name : ./d26028351f794631b798d75542b59072.mkv
Format : Matroska
Format version : Version 4 / Version 2
File size : 1.11 GiB
Duration : 29 min 30 s
Overall bit rate : 5 386 kb/s
Encoded date : UTC 2018-01-12 22:38:19
Writing application : mkvmerge v15.0.0 ('Duel with the Devil') 64-bit
Writing library : libebml v1.3.5 + libmatroska v1.4.5

Video
ID : 1
Format : AVC
Format/Info : Advanced Video Codec
Format profile : High@L3.2
Format settings : CABAC / 4 Ref Frames
Format settings, CABAC : Yes
Format settings, RefFrames : 4 frames
Codec ID : V_MPEG4/ISO/AVC
Duration : 29 min 30 s
Bit rate : 5 064 kb/s
Width : 1 280 pixels
Height : 720 pixels
Display aspect ratio : 16:9
Frame rate mode : Constant
Frame rate : 50.000 FPS
Color space : YUV
Chroma subsampling : 4:2:0
Bit depth : 8 bits
Scan type : Progressive
Bits/(Pixel*Frame) : 0.110
Stream size : 1.04 GiB (94%)
Default : Yes
Forced : No
Color range : Limited
Color primaries : BT.709
Transfer characteristics : BT.709
Matrix coefficients : BT.709

Audio
ID : 2
Format : AAC
Format/Info : Advanced Audio Codec
Format profile : LC
Codec ID : A_AAC-2
Duration : 29 min 30 s
Bit rate : 317 kb/s
Channel(s) : 2 channels
Channel positions : Front: L R
Sampling rate : 48.0 kHz
Frame rate : 46.875 FPS (1024 SPF)
Compression mode : Lossy
Delay relative to video : -20 ms
Stream size : 67.0 MiB (6%)
Language : English
Default : Yes
Forced : No

Text
ID : 3
Format : UTF-8
Codec ID : S_TEXT/UTF8
Codec ID/Info : UTF-8 Plain Text
Duration : 28 min 36 s
Bit rate : 268 b/s
Count of elements : 593
Stream size : 56.3 KiB (0%)
Default : No
Forced : No





QI S15E11


QI S15E11


QI S15E11


QI S15E11


QI S15E11

All episodes