Animals. S16E01

Posted By: Tavaz
1080p (FullHD) / HDTV IMDb
Animals. S16E01

Animals. S16E01
HDTV | MKV | 1920x1080 | English | H264 @ 5437 kbps | AAC @ 123 kbps | 29 min 27 s | 1.15 GiB
Genre: Animation, Comedy

An animated comedy focusing on the downtrodden creatures native to Earth’s least-habitable environment: New York City. Whether it’s lovelorn rats, gender-questioning pigeons or aging bedbugs in the midst of a midlife crisis, the awkward small talk, moral ambiguity and existential woes of non-human urbanites prove startlingly similar to our own.

400fbebba64842afaddc3a9708d6c835.mkv (1.1 GB)



General
Unique ID : 200289668028235379756574946315451758408 (0x96AE630D3C164DDAA5476BF0C69BF748)
Complete name : ./400fbebba64842afaddc3a9708d6c835.mkv
Format : Matroska
Format version : Version 4 / Version 2
File size : 1.15 GiB
Duration : 29 min 27 s
Overall bit rate : 5 565 kb/s
Encoded date : UTC 2018-10-01 00:05:01
Writing application : TV_Tool! Ver:Funzies \o/(2.5)
Writing library : yellow:p-x264.exe + Dec 2017

Video
ID : 1
Format : AVC
Format/Info : Advanced Video Codec
Format profile : High@L4.2
Format settings : CABAC / 4 Ref Frames
Format settings, CABAC : Yes
Format settings, RefFrames : 4 frames
Codec ID : V_MPEG4/ISO/AVC
Duration : 29 min 27 s
Bit rate : 5 438 kb/s
Width : 1 920 pixels
Height : 1 080 pixels
Display aspect ratio : 16:9
Frame rate mode : Constant
Frame rate : 50.000 FPS
Color space : YUV
Chroma subsampling : 4:2:0
Bit depth : 8 bits
Scan type : Progressive
Bits/(Pixel*Frame) : 0.052
Stream size : 1.12 GiB (98%)
Writing library : x264 core 155 r2901 To Start Press Any Key. Where's The Any Key? (powered by QPEL's 7d0ff22 banter)
Encoding settings : cabac=1 / ref=4 / deblock=1:-2:-2 / analyse=0x3:0x113 / me=umh / subme=9 / psy=1 / psy_rd=1.00:0.00 / mixed_ref=1 / me_range=16 / chroma_me=1 / trellis=2 / 8x8dct=1 / cqm=0 / deadzone=21,11 / fast_pskip=1 / chroma_qp_offset=-2 / threads=12 / lookahead_threads=1 / sliced_threads=0 / nr=0 / decimate=1 / interlaced=0 / bluray_compat=0 / constrained_intra=0 / bframes=3 / b_pyramid=2 / b_adapt=1 / b_bias=0 / direct=3 / weightb=1 / open_gop=0 / weightp=2 / keyint=250 / keyint_min=25 / scenecut=40 / intra_refresh=0 / rc_lookahead=50 / rc=crf / mbtree=1 / crf=19.0 / qcomp=0.60 / qpmin=0 / qpmax=69 / qpstep=4 / ip_ratio=1.40 / aq=1:1.00
Language : English
Default : Yes
Forced : No
Color range : Limited
Matrix coefficients : BT.709

Audio
ID : 2
Format : AAC
Format/Info : Advanced Audio Codec
Format profile : LC
Codec ID : A_AAC-2
Duration : 29 min 27 s
Bit rate : 124 kb/s
Channel(s) : 2 channels
Channel positions : Front: L R
Sampling rate : 48.0 kHz
Frame rate : 46.875 FPS (1024 SPF)
Compression mode : Lossy
Delay relative to video : -20 ms
Stream size : 26.1 MiB (2%)
Language : English
Default : Yes
Forced : No





Animals. S16E01


Animals. S16E01


Animals. S16E01


Animals. S16E01


Animals. S16E01

All episodes