Featured TV Shows


Animals. S16E01

Posted By: Tavaz
SD / WEB-DL IMDb
Animals. S16E01

Animals. S16E01
WEB-DL | MKV | 960x540 | English | H264 @ 1602 kbps | AAC @ 317 kbps | 29 min 28 s | 405 MiB
Subtitles: English
Genre: Animation, Comedy

An animated comedy focusing on the downtrodden creatures native to Earth’s least-habitable environment: New York City. Whether it’s lovelorn rats, gender-questioning pigeons or aging bedbugs in the midst of a midlife crisis, the awkward small talk, moral ambiguity and existential woes of non-human urbanites prove startlingly similar to our own.

cd59a2780a074384ae95821cb773d3e4.mkv (405.4 MB)



General
Complete name : ./cd59a2780a074384ae95821cb773d3e4.mkv
Format : Matroska
Format version : Version 4 / Version 2
File size : 405 MiB
Duration : 29 min 28 s
Overall bit rate : 1 923 kb/s
Encoded date : UTC 2018-09-12 17:41:56
Writing application : mkvmerge v26.0.0 ('In The Game') 64-bit
Writing library : libebml v1.3.6 + libmatroska v1.4.9

Video
ID : 3
Format : AVC
Format/Info : Advanced Video Codec
Format profile : Main@L3.1
Format settings : CABAC / 4 Ref Frames
Format settings, CABAC : Yes
Format settings, RefFrames : 4 frames
Codec ID : V_MPEG4/ISO/AVC
Duration : 29 min 28 s
Bit rate : 1 603 kb/s
Width : 960 pixels
Height : 540 pixels
Display aspect ratio : 16:9
Frame rate mode : Constant
Frame rate : 25.000 FPS
Color space : YUV
Chroma subsampling : 4:2:0
Bit depth : 8 bits
Scan type : Progressive
Bits/(Pixel*Frame) : 0.124
Stream size : 338 MiB (83%)
Language : English
Default : Yes
Forced : No
Color range : Limited
Color primaries : BT.709
Transfer characteristics : BT.709
Matrix coefficients : BT.709

Audio
ID : 2
Format : AAC
Format/Info : Advanced Audio Codec
Format profile : LC
Codec ID : A_AAC-2
Duration : 29 min 28 s
Bit rate : 317 kb/s
Channel(s) : 2 channels
Channel positions : Front: L R
Sampling rate : 48.0 kHz
Frame rate : 46.875 FPS (1024 SPF)
Compression mode : Lossy
Stream size : 66.9 MiB (17%)
Language : English
Default : Yes
Forced : No

Text
ID : 1
Format : UTF-8
Codec ID : S_TEXT/UTF8
Codec ID/Info : UTF-8 Plain Text
Duration : 28 min 35 s
Bit rate : 241 b/s
Count of elements : 581
Stream size : 50.5 KiB (0%)
Language : English
Default : Yes
Forced : No





Animals. S16E01


Animals. S16E01


Animals. S16E01


Animals. S16E01


Animals. S16E01

All episodes