Index
# A B C D E F G H I J K L M N O P Q R S T U V W X Y Z
Tags
Language
Tags
July 2024
Su Mo Tu We Th Fr Sa
30 1 2 3 4 5 6
7 8 9 10 11 12 13
14 15 16 17 18 19 20
21 22 23 24 25 26 27
28 29 30 31 1 2 3

Featured TV Shows


Queenie S01E03

Posted By: Tavaz
2160p (4k UHD) / WEBRip IMDb
Queenie S01E03

Queenie S01E03
WEBRip | MKV | 3840x2160 | English | H265 @ 15178 kbps | E-AC-3 @ 256.0 kbps | 24 min 55 s | 2.74 GiB
Subtitles: English, Español
Genre: Drama, Comedy


Queenie Jenkins is a 25-year-old Jamaican British woman living in south London, straddling two cultures and slotting neatly into neither. After a messy breakup with her long-term boyfriend, Queenie seeks comfort in all the wrong places and begins to realize she has to face the past head-on before she can rebuild.

Queenie.2024.S01E03.2160p.WEB.H265-SuccessfulCrab.mkv (2.7 GB)



General
Unique ID : 287135282035985432326568872086466855744 (0xD8043E681FF0CB17DD2360B994D60340)
Complete name : ./Queenie.2024.S01E03.2160p.WEB.H265-SuccessfulCrab.mkv
Format : Matroska
Format version : Version 4
File size : 2.74 GiB
Duration : 24 min 55 s
Overall bit rate : 15.7 Mb/s
Writing application : mkvmerge v82.0 ('I'm The President') 64-bit
Writing library : libebml v1.4.5 + libmatroska v1.7.1

Video
ID : 1
Format : HEVC
Format/Info : High Efficiency Video Coding
Format profile : Main 10@L5.1@Main
Codec ID : V_MPEGH/ISO/HEVC
Duration : 24 min 55 s
Bit rate : 15.2 Mb/s
Width : 3 840 pixels
Height : 2 160 pixels
Display aspect ratio : 16:9
Frame rate mode : Constant
Frame rate : 23.976 (24000/1001) FPS
Color space : YUV
Chroma subsampling : 4:2:0
Bit depth : 10 bits
Bits/(Pixel*Frame) : 0.076
Stream size : 2.64 GiB (96%)
Default : Yes
Forced : No

Audio
ID : 2
Format : E-AC-3
Format/Info : Enhanced AC-3
Commercial name : Dolby Digital Plus
Codec ID : A_EAC3
Duration : 24 min 55 s
Bit rate mode : Constant
Bit rate : 256 kb/s
Channel(s) : 6 channels
Channel layout : L R C LFE Ls Rs
Sampling rate : 48.0 kHz
Frame rate : 31.250 FPS (1536 SPF)
Compression mode : Lossy
Stream size : 45.7 MiB (2%)
Language : English
Service kind : Complete Main
Default : Yes
Forced : No

Text #1
ID : 3
Format : UTF-8
Codec ID : S_TEXT/UTF8
Codec ID/Info : UTF-8 Plain Text
Title : English [SDH]
Language : English
Default : No
Forced : No

Text #2
ID : 4
Format : UTF-8
Codec ID : S_TEXT/UTF8
Codec ID/Info : UTF-8 Plain Text
Title : Spanish [SDH]
Language : Spanish
Default : No
Forced : No





Queenie S01E03


Queenie S01E03


Queenie S01E03


Queenie S01E03


Queenie S01E03

All episodes