Index
# A B C D E F G H I J K L M N O P Q R S T U V W X Y Z
Tags
Language
Tags
July 2024
Su Mo Tu We Th Fr Sa
30 1 2 3 4 5 6
7 8 9 10 11 12 13
14 15 16 17 18 19 20
21 22 23 24 25 26 27
28 29 30 31 1 2 3

Featured TV Shows


Queenie S01E05

Posted By: Tavaz
720p (HD) / WEBRip IMDb
Queenie S01E05

Queenie S01E05
WEBRip | MKV | 1280x720 | English | H264 @ 3087 kbps | E-AC-3 @ 256.0 kbps | 24 min 46 s | 593 MiB
Subtitles: Dansk, Polski, Português, Ελληνικά, Magyar, Čeština, Română, Slovenčina, Nederlands, Deutsch, Suomi, Français, Español, Svenska, Türkçe, English, Italiano
Genre: Drama, Comedy


Queenie Jenkins is a 25-year-old Jamaican British woman living in south London, straddling two cultures and slotting neatly into neither. After a messy breakup with her long-term boyfriend, Queenie seeks comfort in all the wrong places and begins to realize she has to face the past head-on before she can rebuild.

Queenie.2024.S01E05.720p.WEB.H264-RVKD.mkv (593.4 MB)



General
Complete name : ./Queenie.2024.S01E05.720p.WEB.H264-RVKD.mkv
Format : Matroska
Format version : Version 4
File size : 593 MiB
Duration : 24 min 46 s
Overall bit rate mode : Variable
Overall bit rate : 3 349 kb/s
Writing application : mkvmerge v81.0 ('Milliontown') 64-bit
Writing library : libebml v1.4.4 + libmatroska v1.7.1

Video
ID : 1
Format : AVC
Format/Info : Advanced Video Codec
Format profile : High@L3.1
Format settings : CABAC / 4 Ref Frames
Format settings, CABAC : Yes
Format settings, Reference frames : 4 frames
Codec ID : V_MPEG4/ISO/AVC
Duration : 24 min 46 s
Bit rate mode : Variable
Bit rate : 3 088 kb/s
Maximum bit rate : 6 375 kb/s
Width : 1 280 pixels
Height : 720 pixels
Display aspect ratio : 16:9
Frame rate mode : Constant
Frame rate : 23.976 (24000/1001) FPS
Color space : YUV
Chroma subsampling : 4:2:0
Bit depth : 8 bits
Scan type : Progressive
Bits/(Pixel*Frame) : 0.140
Stream size : 547 MiB (92%)
Default : Yes
Forced : No
Color range : Limited
Color primaries : BT.709
Transfer characteristics : BT.709
Matrix coefficients : BT.709

Audio
ID : 2
Format : E-AC-3
Format/Info : Enhanced AC-3
Commercial name : Dolby Digital Plus
Codec ID : A_EAC3
Duration : 24 min 46 s
Bit rate mode : Constant
Bit rate : 256 kb/s
Channel(s) : 6 channels
Channel layout : L R C LFE Ls Rs
Sampling rate : 48.0 kHz
Frame rate : 31.250 FPS (1536 SPF)
Compression mode : Lossy
Stream size : 45.4 MiB (8%)
Title : English
Language : English
Service kind : Complete Main
Default : Yes
Forced : No

Text #1
ID : 3
Format : UTF-8
Codec ID : S_TEXT/UTF8
Codec ID/Info : UTF-8 Plain Text
Duration : 24 min 18 s
Bit rate : 98 b/s
Frame rate : 0.321 FPS
Count of elements : 469
Stream size : 17.6 KiB (0%)
Title : English
Language : English
Default : No
Forced : No

Text #2
ID : 4
Format : UTF-8
Codec ID : S_TEXT/UTF8
Codec ID/Info : UTF-8 Plain Text
Duration : 24 min 18 s
Bit rate : 98 b/s
Frame rate : 0.321 FPS
Count of elements : 469
Stream size : 17.6 KiB (0%)
Title : English (SDH)
Language : English
Default : No
Forced : No

Text #3
ID : 5
Format : UTF-8
Codec ID : S_TEXT/UTF8
Codec ID/Info : UTF-8 Plain Text
Duration : 24 min 16 s
Bit rate : 75 b/s
Frame rate : 0.286 FPS
Count of elements : 417
Stream size : 13.4 KiB (0%)
Title : Czech
Language : Czech
Default : No
Forced : No

Text #4
ID : 6
Format : UTF-8
Codec ID : S_TEXT/UTF8
Codec ID/Info : UTF-8 Plain Text
Duration : 24 min 16 s
Bit rate : 73 b/s
Frame rate : 0.282 FPS
Count of elements : 411
Stream size : 13.0 KiB (0%)
Title : Danish
Language : Danish
Default : No
Forced : No

Text #5
ID : 7
Format : UTF-8
Codec ID : S_TEXT/UTF8
Codec ID/Info : UTF-8 Plain Text
Duration : 24 min 16 s
Bit rate : 79 b/s
Frame rate : 0.286 FPS
Count of elements : 416
Stream size : 14.1 KiB (0%)
Title : German
Language : German
Default : No
Forced : No

Text #6
ID : 8
Format : UTF-8
Codec ID : S_TEXT/UTF8
Codec ID/Info : UTF-8 Plain Text
Duration : 24 min 16 s
Bit rate : 125 b/s
Frame rate : 0.286 FPS
Count of elements : 417
Stream size : 22.4 KiB (0%)
Title : Greek
Language : Greek
Default : No
Forced : No

Text #7
ID : 9
Format : UTF-8
Codec ID : S_TEXT/UTF8
Codec ID/Info : UTF-8 Plain Text
Duration : 24 min 16 s
Bit rate : 71 b/s
Frame rate : 0.283 FPS
Count of elements : 412
Stream size : 12.7 KiB (0%)
Title : Spanish (Latin America)
Language : Spanish
Default : No
Forced : No

Text #8
ID : 10
Format : UTF-8
Codec ID : S_TEXT/UTF8
Codec ID/Info : UTF-8 Plain Text
Duration : 24 min 16 s
Bit rate : 76 b/s
Frame rate : 0.286 FPS
Count of elements : 416
Stream size : 13.6 KiB (0%)
Title : Spanish
Language : Spanish
Default : No
Forced : No

Text #9
ID : 11
Format : UTF-8
Codec ID : S_TEXT/UTF8
Codec ID/Info : UTF-8 Plain Text
Duration : 24 min 16 s
Bit rate : 71 b/s
Frame rate : 0.285 FPS
Count of elements : 415
Stream size : 12.7 KiB (0%)
Title : Finnish
Language : Finnish
Default : No
Forced : No

Text #10
ID : 12
Format : UTF-8
Codec ID : S_TEXT/UTF8
Codec ID/Info : UTF-8 Plain Text
Duration : 24 min 16 s
Bit rate : 72 b/s
Frame rate : 0.284 FPS
Count of elements : 413
Stream size : 12.9 KiB (0%)
Title : French
Language : French
Default : No
Forced : No

Text #11
ID : 13
Format : UTF-8
Codec ID : S_TEXT/UTF8
Codec ID/Info : UTF-8 Plain Text
Duration : 24 min 16 s
Bit rate : 76 b/s
Frame rate : 0.285 FPS
Count of elements : 415
Stream size : 13.6 KiB (0%)
Title : Hungarian
Language : Hungarian
Default : No
Forced : No

Text #12
ID : 14
Format : UTF-8
Codec ID : S_TEXT/UTF8
Codec ID/Info : UTF-8 Plain Text
Duration : 24 min 16 s
Bit rate : 75 b/s
Frame rate : 0.284 FPS
Count of elements : 414
Stream size : 13.4 KiB (0%)
Title : Italian
Language : Italian
Default : No
Forced : No

Text #13
ID : 15
Format : UTF-8
Codec ID : S_TEXT/UTF8
Codec ID/Info : UTF-8 Plain Text
Duration : 24 min 16 s
Bit rate : 69 b/s
Frame rate : 0.285 FPS
Count of elements : 415
Stream size : 12.4 KiB (0%)
Title : Dutch
Language : Dutch
Default : No
Forced : No

Text #14
ID : 16
Format : UTF-8
Codec ID : S_TEXT/UTF8
Codec ID/Info : UTF-8 Plain Text
Duration : 24 min 16 s
Bit rate : 71 b/s
Frame rate : 0.284 FPS
Count of elements : 414
Stream size : 12.7 KiB (0%)
Title : Norwegian
Language : Norwegian
Default : No
Forced : No

Text #15
ID : 17
Format : UTF-8
Codec ID : S_TEXT/UTF8
Codec ID/Info : UTF-8 Plain Text
Duration : 24 min 16 s
Bit rate : 67 b/s
Frame rate : 0.286 FPS
Count of elements : 416
Stream size : 12.0 KiB (0%)
Title : Polish
Language : Polish
Default : No
Forced : No

Text #16
ID : 18
Format : UTF-8
Codec ID : S_TEXT/UTF8
Codec ID/Info : UTF-8 Plain Text
Duration : 24 min 16 s
Bit rate : 75 b/s
Frame rate : 0.286 FPS
Count of elements : 416
Stream size : 13.4 KiB (0%)
Title : Portuguese (Brazil)
Language : Portuguese
Default : No
Forced : No

Text #17
ID : 19
Format : UTF-8
Codec ID : S_TEXT/UTF8
Codec ID/Info : UTF-8 Plain Text
Duration : 24 min 16 s
Bit rate : 78 b/s
Frame rate : 0.285 FPS
Count of elements : 415
Stream size : 14.0 KiB (0%)
Title : Portuguese
Language : Portuguese
Default : No
Forced : No

Text #18
ID : 20
Format : UTF-8
Codec ID : S_TEXT/UTF8
Codec ID/Info : UTF-8 Plain Text
Duration : 24 min 16 s
Bit rate : 76 b/s
Frame rate : 0.285 FPS
Count of elements : 415
Stream size : 13.6 KiB (0%)
Title : Romanian
Language : Romanian
Default : No
Forced : No

Text #19
ID : 21
Format : UTF-8
Codec ID : S_TEXT/UTF8
Codec ID/Info : UTF-8 Plain Text
Duration : 24 min 16 s
Bit rate : 74 b/s
Frame rate : 0.286 FPS
Count of elements : 416
Stream size : 13.2 KiB (0%)
Title : Slovak
Language : Slovak
Default : No
Forced : No

Text #20
ID : 22
Format : UTF-8
Codec ID : S_TEXT/UTF8
Codec ID/Info : UTF-8 Plain Text
Duration : 24 min 16 s
Bit rate : 76 b/s
Frame rate : 0.283 FPS
Count of elements : 412
Stream size : 13.7 KiB (0%)
Title : Swedish
Language : Swedish
Default : No
Forced : No

Text #21
ID : 23
Format : UTF-8
Codec ID : S_TEXT/UTF8
Codec ID/Info : UTF-8 Plain Text
Duration : 24 min 16 s
Bit rate : 73 b/s
Frame rate : 0.286 FPS
Count of elements : 416
Stream size : 13.0 KiB (0%)
Title : Turkish
Language : Turkish
Default : No
Forced : No

Menu
00:00:00.000 : en:Start
00:02:13.175 : en:Intro
00:02:17.721 : en:Scene 1
00:06:19.129 : en:Scene 2
00:12:43.138 : en:Scene 3
00:15:38.522 : en:Scene 4
00:23:59.314 : en:Credits





Queenie S01E05


Queenie S01E05


Queenie S01E05


Queenie S01E05


Queenie S01E05

All episodes