Featured TV Shows


Ray Donovan S06E05

Posted By: Tavaz
SD / WEBRip IMDb
Ray Donovan S06E05

Ray Donovan S06E05
WEBRip | MKV | 720x404 | German | H264 @ 731 kbps | AC-3 @ 192 kbps | 53 min 31 s | 361 MiB
Genre: Drama

Der aus South Boston stammende Ray Donovan arbeitet als „Fixer“ für die Kanzlei Goldman & Drexler, die die Reichen und Berühmten von Los Angeles vertritt. Donovans Aufgabe ist es, diskret deren Probleme zu lösen.

Sein Leben gerät in Aufruhr, als sein Vater Mickey Donovan aus dem Gefängnis entlassen wird.

RD S06E05.mkv (360.9 MB)



General
Unique ID : 53103148553610065575156852755186482777 (0x27F34B5D68CD998102532A103D2A7E59)
Complete name : ./RD Problemloeser S06E05 German/RD S06E05.mkv
Format : Matroska
Format version : Version 2
File size : 361 MiB
Duration : 53 min 31 s
Overall bit rate : 943 kb/s
Movie name : Ray.Donovan.S06E05.Ellis.Island.GERMAN.DUBBED.WS.WebRip.x264-TVP
Encoded date : UTC 2018-11-30 21:29:19
Writing application : mkvmerge v5.6.0 ('Kenya Kane') built on May 28 2012 06:47:39
Writing library : libebml v1.2.2 + libmatroska v1.3.0

Video
ID : 1
Format : AVC
Format/Info : Advanced Video Codec
Format profile : High@L3.1
Format settings : CABAC / 5 Ref Frames
Format settings, CABAC : Yes
Format settings, RefFrames : 5 frames
Codec ID : V_MPEG4/ISO/AVC
Duration : 53 min 31 s
Bit rate : 732 kb/s
Width : 720 pixels
Height : 404 pixels
Display aspect ratio : 16:9
Frame rate mode : Constant
Frame rate : 25.000 FPS
Color space : YUV
Chroma subsampling : 4:2:0
Bit depth : 8 bits
Scan type : Progressive
Bits/(Pixel*Frame) : 0.101
Stream size : 280 MiB (78%)
Title : tvp-raydonovan-s06e05-480p
Writing library : x264 core 157 r2935 545de2f
Encoding settings : cabac=1 / ref=5 / deblock=1:-2:-2 / analyse=0x3:0x113 / me=umh / subme=8 / psy=1 / psy_rd=1.00:0.00 / mixed_ref=1 / me_range=16 / chroma_me=1 / trellis=1 / 8x8dct=1 / cqm=0 / deadzone=21,11 / fast_pskip=1 / chroma_qp_offset=-2 / threads=12 / lookahead_threads=2 / sliced_threads=0 / nr=0 / decimate=1 / interlaced=0 / bluray_compat=0 / constrained_intra=0 / bframes=3 / b_pyramid=2 / b_adapt=2 / b_bias=0 / direct=3 / weightb=1 / open_gop=0 / weightp=2 / keyint=250 / keyint_min=25 / scenecut=40 / intra_refresh=0 / rc_lookahead=50 / rc=crf / mbtree=1 / crf=19.0 / qcomp=0.60 / qpmin=0 / qpmax=69 / qpstep=4 / vbv_maxrate=14000 / vbv_bufsize=14000 / crf_max=0.0 / nal_hrd=none / filler=0 / ip_ratio=1.40 / aq=1:1.00
Language : German
Default : Yes
Forced : Yes

Audio
ID : 2
Format : AC-3
Format/Info : Audio Coding 3
Mode : Dolby Digital
Format settings, Endianness : Big
Codec ID : A_AC3
Duration : 53 min 31 s
Bit rate mode : Constant
Bit rate : 192 kb/s
Channel(s) : 2 channels
Channel positions : Front: L R
Sampling rate : 48.0 kHz
Frame rate : 31.250 FPS (1536 SPF)
Bit depth : 16 bits
Compression mode : Lossy
Stream size : 73.5 MiB (20%)
Language : German
Service kind : Complete Main
Default : Yes
Forced : Yes





Ray Donovan S06E05


Ray Donovan S06E05


Ray Donovan S06E05


Ray Donovan S06E05


Ray Donovan S06E05

All episodes