Featured TV Shows


Ray Donovan S06E12

Posted By: Tavaz
SD / WEBRip IMDb
Ray Donovan S06E12

Ray Donovan S06E12
WEBRip | MKV | 720x404 | German | H264 @ 715 kbps | AC-3 @ 384 kbps | 55 min 9 s | 434 MiB
Genre: Drama

Der aus South Boston stammende Ray Donovan arbeitet als „Fixer“ für die Kanzlei Goldman & Drexler, die die Reichen und Berühmten von Los Angeles vertritt. Donovans Aufgabe ist es, diskret deren Probleme zu lösen.

Sein Leben gerät in Aufruhr, als sein Vater Mickey Donovan aus dem Gefängnis entlassen wird.

RD S06E12.mkv (434.4 MB)



General
Unique ID : 54332191473520966428467152598685544838 (0x28DFFFDBF99F75D7F3732927977D7186)
Complete name : ./RD Problemloeser S06E12 German/RD S06E12.mkv
Format : Matroska
Format version : Version 4 / Version 2
File size : 434 MiB
Duration : 55 min 9 s
Overall bit rate : 1 101 kb/s
Movie name : Ray.Donovan.S06E12.Die.Toten.und.der.Schnee.GERMAN.DUBBED.WS.WebRip.x264-TVP
Encoded date : UTC 2019-01-24 21:22:51
Writing application : mkvmerge v8.5.2 ('Crosses') 64bit
Writing library : libebml v1.3.3 + libmatroska v1.4.4

Video
ID : 1
Format : AVC
Format/Info : Advanced Video Codec
Format profile : High@L3.1
Format settings : CABAC / 5 Ref Frames
Format settings, CABAC : Yes
Format settings, RefFrames : 5 frames
Codec ID : V_MPEG4/ISO/AVC
Duration : 55 min 9 s
Bit rate : 715 kb/s
Width : 720 pixels
Height : 404 pixels
Display aspect ratio : 16:9
Frame rate mode : Constant
Frame rate : 25.000 FPS
Original frame rate : 23.976 (24000/1001) FPS
Color space : YUV
Chroma subsampling : 4:2:0
Bit depth : 8 bits
Scan type : Progressive
Bits/(Pixel*Frame) : 0.098
Stream size : 282 MiB (65%)
Title : tvp-raydonovan-s06e12-480p
Writing library : x264 core 157 r2935 545de2f
Encoding settings : cabac=1 / ref=5 / deblock=1:-2:-2 / analyse=0x3:0x113 / me=umh / subme=8 / psy=1 / psy_rd=1.00:0.00 / mixed_ref=1 / me_range=16 / chroma_me=1 / trellis=1 / 8x8dct=1 / cqm=0 / deadzone=21,11 / fast_pskip=1 / chroma_qp_offset=-2 / threads=12 / lookahead_threads=2 / sliced_threads=0 / nr=0 / decimate=1 / interlaced=0 / bluray_compat=0 / constrained_intra=0 / bframes=3 / b_pyramid=2 / b_adapt=2 / b_bias=0 / direct=3 / weightb=1 / open_gop=0 / weightp=2 / keyint=240 / keyint_min=23 / scenecut=40 / intra_refresh=0 / rc_lookahead=50 / rc=crf / mbtree=1 / crf=19.0 / qcomp=0.60 / qpmin=0 / qpmax=69 / qpstep=4 / vbv_maxrate=14000 / vbv_bufsize=14000 / crf_max=0.0 / nal_hrd=none / filler=0 / ip_ratio=1.40 / aq=1:1.00
Language : German
Default : Yes
Forced : Yes

Audio
ID : 2
Format : AC-3
Format/Info : Audio Coding 3
Format settings, Endianness : Big
Codec ID : A_AC3
Duration : 55 min 9 s
Bit rate mode : Constant
Bit rate : 384 kb/s
Channel(s) : 6 channels
Channel positions : Front: L C R, Side: L R, LFE
Sampling rate : 48.0 kHz
Frame rate : 31.250 FPS (1536 SPF)
Bit depth : 16 bits
Compression mode : Lossy
Stream size : 152 MiB (35%)
Language : German
Service kind : Complete Main
Default : Yes
Forced : Yes





Ray Donovan S06E12


Ray Donovan S06E12


Ray Donovan S06E12


Ray Donovan S06E12


Ray Donovan S06E12

All episodes