Featured TV Shows


Rellik S01E04

Posted By: Tavaz
720p (HD) / HDTV IMDb
Rellik S01E04

Rellik S01E04
HDTV | MKV | 1280x720 | English | H264 @ 2024 kbps | MPEG Audio @ 192 kbps | 57 min 21 s | 910 MiB
Genre: Crime, Drame

Gabriel Markham et son équipe recherchent un serial killer et tombent sur un indice pouvant mener à l'identité du coupable. Gabriel est alors tiraillé entre la conviction qu'ils le connaissent déjà et la preuve irréfutable qu'ils ont pourtan trouvé sur la scène de meurtre.

rellik.s01e04.french.720p.hdtv.x264-sh0w.mkv (910.1 MB)
rellik.s01e04.french.720p.hdtv.x264-sh0w.sample.mkv (14.7 MB)



General
Unique ID : 303364505844792065867547622120221334019 (0xE439E0EB1515A53681223E4F613C5A03)
Complete name : ./rellik.s01e04.french.720p.hdtv.x264-sh0w.mkv
Format : Matroska
Format version : Version 4 / Version 2
File size : 910 MiB
Duration : 57 min 21 s
Overall bit rate : 2 219 kb/s
Encoded date : UTC 2018-03-04 21:57:57
Writing application : mkvmerge v21.0.0 ('Tardigrades Will Inherit The Earth') 64-bit
Writing library : libebml v1.3.5 + libmatroska v1.4.8

Video
ID : 1
Format : AVC
Format/Info : Advanced Video Codec
Format profile : High@L4.1
Format settings : CABAC / 5 Ref Frames
Format settings, CABAC : Yes
Format settings, RefFrames : 5 frames
Codec ID : V_MPEG4/ISO/AVC
Duration : 57 min 21 s
Bit rate : 2 025 kb/s
Width : 1 280 pixels
Height : 720 pixels
Display aspect ratio : 16:9
Frame rate mode : Constant
Frame rate : 25.000 FPS
Color space : YUV
Chroma subsampling : 4:2:0
Bit depth : 8 bits
Scan type : Progressive
Bits/(Pixel*Frame) : 0.088
Stream size : 831 MiB (91%)
Writing library : x264 core 155 r2901 7d0ff22
Encoding settings : cabac=1 / ref=5 / deblock=1:0:0 / analyse=0x3:0x113 / me=hex / subme=8 / psy=1 / psy_rd=1.00:0.00 / mixed_ref=1 / me_range=16 / chroma_me=1 / trellis=2 / 8x8dct=1 / cqm=0 / deadzone=21,11 / fast_pskip=1 / chroma_qp_offset=-2 / threads=12 / lookahead_threads=2 / sliced_threads=0 / nr=0 / decimate=1 / interlaced=0 / bluray_compat=0 / constrained_intra=0 / bframes=3 / b_pyramid=2 / b_adapt=1 / b_bias=0 / direct=3 / weightb=1 / open_gop=0 / weightp=2 / keyint=250 / keyint_min=25 / scenecut=40 / intra_refresh=0 / rc_lookahead=50 / rc=crf / mbtree=1 / crf=18.0 / qcomp=0.60 / qpmin=0 / qpmax=69 / qpstep=4 / ip_ratio=1.40 / aq=1:1.00
Default : Yes
Forced : No
Color range : Limited
Matrix coefficients : BT.709

Audio
ID : 2
Format : MPEG Audio
Format version : Version 1
Format profile : Layer 2
Codec ID : A_MPEG/L2
Codec ID/Hint : MP2
Duration : 57 min 21 s
Bit rate mode : Constant
Bit rate : 192 kb/s
Channel(s) : 2 channels
Sampling rate : 48.0 kHz
Frame rate : 41.667 FPS (1152 SPF)
Compression mode : Lossy
Stream size : 78.8 MiB (9%)
Default : Yes
Forced : No





Rellik S01E04


Rellik S01E04


Rellik S01E04


Rellik S01E04


Rellik S01E04

All episodes