Featured TV Shows


Rellik S01E06

Posted By: Tavaz
720p (HD) / HDTV IMDb
Rellik S01E06

Rellik S01E06
HDTV | MKV | 1280x720 | English | H264 @ 2356 kbps | MPEG Audio @ 192 kbps | 56 min 39 s | 1.01 GiB
Genre: Crime, Drame

Gabriel Markham et son équipe recherchent un serial killer et tombent sur un indice pouvant mener à l'identité du coupable. Gabriel est alors tiraillé entre la conviction qu'ils le connaissent déjà et la preuve irréfutable qu'ils ont pourtan trouvé sur la scène de meurtre.

rellik.s01e01.french.720p.hdtv.x264-sh0w.mkv (1.0 GB)
rellik.s01e01.french.720p.hdtv.x264-sh0w.sample.mkv (13.9 MB)



General
Unique ID : 123720181735222692774672664628999078058 (0x5D13A3E8EC9169D4EEAF7B535F4DC0AA)
Complete name : ./rellik.s01e01.french.720p.hdtv.x264-sh0w.mkv
Format : Matroska
Format version : Version 4 / Version 2
File size : 1.01 GiB
Duration : 56 min 39 s
Overall bit rate : 2 551 kb/s
Encoded date : UTC 2018-02-25 20:57:45
Writing application : mkvmerge v21.0.0 ('Tardigrades Will Inherit The Earth') 64-bit
Writing library : libebml v1.3.5 + libmatroska v1.4.8

Video
ID : 1
Format : AVC
Format/Info : Advanced Video Codec
Format profile : High@L4.1
Format settings : CABAC / 5 Ref Frames
Format settings, CABAC : Yes
Format settings, RefFrames : 5 frames
Codec ID : V_MPEG4/ISO/AVC
Duration : 56 min 39 s
Bit rate : 2 357 kb/s
Width : 1 280 pixels
Height : 720 pixels
Display aspect ratio : 16:9
Frame rate mode : Constant
Frame rate : 25.000 FPS
Color space : YUV
Chroma subsampling : 4:2:0
Bit depth : 8 bits
Scan type : Progressive
Bits/(Pixel*Frame) : 0.102
Stream size : 955 MiB (92%)
Writing library : x264 core 155 r2901 7d0ff22
Encoding settings : cabac=1 / ref=5 / deblock=1:0:0 / analyse=0x3:0x113 / me=hex / subme=8 / psy=1 / psy_rd=1.00:0.00 / mixed_ref=1 / me_range=16 / chroma_me=1 / trellis=2 / 8x8dct=1 / cqm=0 / deadzone=21,11 / fast_pskip=1 / chroma_qp_offset=-2 / threads=18 / lookahead_threads=3 / sliced_threads=0 / nr=0 / decimate=1 / interlaced=0 / bluray_compat=0 / constrained_intra=0 / bframes=3 / b_pyramid=2 / b_adapt=1 / b_bias=0 / direct=3 / weightb=1 / open_gop=0 / weightp=2 / keyint=250 / keyint_min=25 / scenecut=40 / intra_refresh=0 / rc_lookahead=50 / rc=crf / mbtree=1 / crf=18.0 / qcomp=0.60 / qpmin=0 / qpmax=69 / qpstep=4 / ip_ratio=1.40 / aq=1:1.00
Default : Yes
Forced : No
Color range : Limited
Matrix coefficients : BT.709

Audio
ID : 2
Format : MPEG Audio
Format version : Version 1
Format profile : Layer 2
Codec ID : A_MPEG/L2
Codec ID/Hint : MP2
Duration : 56 min 39 s
Bit rate mode : Constant
Bit rate : 192 kb/s
Channel(s) : 2 channels
Sampling rate : 48.0 kHz
Frame rate : 41.667 FPS (1152 SPF)
Compression mode : Lossy
Stream size : 77.8 MiB (8%)
Default : Yes
Forced : No





Rellik S01E06


Rellik S01E06


Rellik S01E06


Rellik S01E06


Rellik S01E06

All episodes