Featured TV Shows


Reverie S01E01

Posted By: Tavaz
1080p (FullHD) / WEB-DL IMDb
Reverie S01E01

Reverie S01E01
WEB-DL | MKV | 1920x1080 | English | H264 @ 9116 kbps | E-AC-3 @ 640 kbps | 42 min 56 s | 2.93 GiB
Subtitles: English
Genre: Drama

A former detective specializing in human behavior is brought in when the launch of an advanced virtual reality program has dangerous and unintended consequences.

4bbd86eb9d674e7b886c5447d60a659d.mkv (2.9 GB)



General
Unique ID : 182435754229362966554703433278785708378 (0x893FD9239DEA1169BDBA3415115DE15A)
Complete name : ./4bbd86eb9d674e7b886c5447d60a659d.mkv
Format : Matroska
Format version : Version 4 / Version 2
File size : 2.93 GiB
Duration : 42 min 56 s
Overall bit rate : 9 759 kb/s
Encoded date : UTC 2018-05-31 14:03:30
Writing application : mkvmerge v13.0.0 ('The Juggler') 64bit
Writing library : libebml v1.3.4 + libmatroska v1.4.5

Video
ID : 1
Format : AVC
Format/Info : Advanced Video Codec
Format profile : High@L4
Format settings : CABAC / 4 Ref Frames
Format settings, CABAC : Yes
Format settings, RefFrames : 4 frames
Codec ID : V_MPEG4/ISO/AVC
Duration : 42 min 56 s
Bit rate : 9 116 kb/s
Width : 1 920 pixels
Height : 1 080 pixels
Display aspect ratio : 16:9
Frame rate mode : Constant
Frame rate : 23.976 (24000/1001) FPS
Color space : YUV
Chroma subsampling : 4:2:0
Bit depth : 8 bits
Scan type : Progressive
Bits/(Pixel*Frame) : 0.183
Stream size : 2.73 GiB (93%)
Default : Yes
Forced : No
Color range : Limited
Color primaries : BT.709
Transfer characteristics : BT.709
Matrix coefficients : BT.709

Audio
ID : 2
Format : E-AC-3
Format/Info : Enhanced Audio Coding 3
Format settings, Endianness : Big
Codec ID : A_EAC3
Duration : 42 min 56 s
Bit rate mode : Constant
Bit rate : 640 kb/s
Channel(s) : 6 channels
Channel positions : Front: L C R, Side: L R, LFE
Sampling rate : 48.0 kHz
Frame rate : 187.500 FPS (256 SPF)
Compression mode : Lossy
Stream size : 197 MiB (7%)
Language : English
Service kind : Complete Main
Default : Yes
Forced : No

Text #1
ID : 3
Format : UTF-8
Codec ID : S_TEXT/UTF8
Codec ID/Info : UTF-8 Plain Text
Duration : 42 min 13 s
Bit rate : 62 b/s
Count of elements : 765
Stream size : 19.5 KiB (0%)
Language : English
Default : No
Forced : No

Text #2
ID : 4
Format : UTF-8
Codec ID : S_TEXT/UTF8
Codec ID/Info : UTF-8 Plain Text
Duration : 42 min 13 s
Bit rate : 71 b/s
Count of elements : 910
Stream size : 22.1 KiB (0%)
Title : SDH
Language : English
Default : No
Forced : No





Reverie S01E01


Reverie S01E01


Reverie S01E01


Reverie S01E01


Reverie S01E01

All episodes