Featured TV Shows


Reverie S01E01

Posted By: Tavaz
SD / WEB-DL IMDb
Reverie S01E01

Reverie S01E01
WEB-DL | MKV | 720x480 | English | H264 @ 1503 kbps | AC-3 @ 384 kbps | 42 min 56 s | 580 MiB
Subtitles: English
Genre: Drama

A former detective specializing in human behavior is brought in when the launch of an advanced virtual reality program has dangerous and unintended consequences.

cbddfd5a91d947e187c3d1eeec0d6a8e.mkv (580.4 MB)



General
Unique ID : 251197010104043898965841417191748597433 (0xBCFAC8CC78C81D4CDA2366F80A48F6B9)
Complete name : ./cbddfd5a91d947e187c3d1eeec0d6a8e.mkv
Format : Matroska
Format version : Version 4 / Version 2
File size : 580 MiB
Duration : 42 min 56 s
Overall bit rate : 1 890 kb/s
Encoded date : UTC 2018-06-02 20:14:13
Writing application : mkvmerge v23.0.0 ('The Bride Said No') 64-bit
Writing library : libebml v1.3.6 + libmatroska v1.4.9

Video
ID : 1
Format : AVC
Format/Info : Advanced Video Codec
Format profile : Main@L3
Format settings : 2 Ref Frames
Format settings, CABAC : No
Format settings, RefFrames : 2 frames
Codec ID : V_MPEG4/ISO/AVC
Duration : 42 min 56 s
Bit rate : 1 504 kb/s
Width : 720 pixels
Height : 480 pixels
Display aspect ratio : 16:9
Frame rate mode : Constant
Frame rate : 23.976 (23976/1000) FPS
Color space : YUV
Chroma subsampling : 4:2:0
Bit depth : 8 bits
Scan type : Progressive
Bits/(Pixel*Frame) : 0.181
Stream size : 462 MiB (80%)
Language : English
Default : Yes
Forced : No
Color range : Limited
Color primaries : BT.709
Transfer characteristics : BT.709
Matrix coefficients : BT.709

Audio
ID : 2
Format : AC-3
Format/Info : Audio Coding 3
Format settings, Endianness : Big
Codec ID : A_AC3
Duration : 42 min 56 s
Bit rate mode : Constant
Bit rate : 384 kb/s
Channel(s) : 6 channels
Channel positions : Front: L C R, Side: L R, LFE
Sampling rate : 48.0 kHz
Frame rate : 31.250 FPS (1536 SPF)
Bit depth : 16 bits
Compression mode : Lossy
Delay relative to video : -42 ms
Stream size : 118 MiB (20%)
Language : English
Service kind : Complete Main
Default : Yes
Forced : No

Text
ID : 3
Format : UTF-8
Codec ID : S_TEXT/UTF8
Codec ID/Info : UTF-8 Plain Text
Duration : 42 min 13 s
Bit rate : 105 b/s
Count of elements : 910
Stream size : 32.5 KiB (0%)
Language : English
Default : Yes
Forced : No





Reverie S01E01


Reverie S01E01


Reverie S01E01


Reverie S01E01


Reverie S01E01

All episodes