Featured TV Shows


Reverie S01E02

Posted By: Tavaz
1080p (FullHD) / WEB-DL IMDb
Reverie S01E02

Reverie S01E02
WEB-DL | MKV | 1920x1080 | English | H264 @ 9233 kbps | E-AC-3 @ 640 kbps | 43 min 0 s | 2.97 GiB
Subtitles: English
Genre: Drama

A former detective specializing in human behavior is brought in when the launch of an advanced virtual reality program has dangerous and unintended consequences.

0327918eebc945fe8a8cb8143c114460.mkv (3.0 GB)



General
Unique ID : 208204355972850710473469924047906750550 (0x9CA2B34B944746E694060F3674694056)
Complete name : ./0327918eebc945fe8a8cb8143c114460.mkv
Format : Matroska
Format version : Version 4 / Version 2
File size : 2.97 GiB
Duration : 43 min 0 s
Overall bit rate : 9 875 kb/s
Encoded date : UTC 2018-06-07 15:02:15
Writing application : mkvmerge v13.0.0 ('The Juggler') 64bit
Writing library : libebml v1.3.4 + libmatroska v1.4.5

Video
ID : 1
Format : AVC
Format/Info : Advanced Video Codec
Format profile : High@L4
Format settings : CABAC / 4 Ref Frames
Format settings, CABAC : Yes
Format settings, RefFrames : 4 frames
Codec ID : V_MPEG4/ISO/AVC
Duration : 43 min 0 s
Bit rate : 9 233 kb/s
Width : 1 920 pixels
Height : 1 080 pixels
Display aspect ratio : 16:9
Frame rate mode : Constant
Frame rate : 23.976 (24000/1001) FPS
Color space : YUV
Chroma subsampling : 4:2:0
Bit depth : 8 bits
Scan type : Progressive
Bits/(Pixel*Frame) : 0.186
Stream size : 2.77 GiB (93%)
Default : Yes
Forced : No
Color range : Limited
Color primaries : BT.709
Transfer characteristics : BT.709
Matrix coefficients : BT.709

Audio
ID : 2
Format : E-AC-3
Format/Info : Enhanced Audio Coding 3
Format settings, Endianness : Big
Codec ID : A_EAC3
Duration : 43 min 0 s
Bit rate mode : Constant
Bit rate : 640 kb/s
Channel(s) : 6 channels
Channel positions : Front: L C R, Side: L R, LFE
Sampling rate : 48.0 kHz
Frame rate : 187.500 FPS (256 SPF)
Compression mode : Lossy
Stream size : 197 MiB (6%)
Language : English
Service kind : Complete Main
Default : Yes
Forced : No

Text #1
ID : 3
Format : UTF-8
Codec ID : S_TEXT/UTF8
Codec ID/Info : UTF-8 Plain Text
Duration : 42 min 17 s
Bit rate : 68 b/s
Count of elements : 805
Stream size : 21.2 KiB (0%)
Language : English
Default : No
Forced : No

Text #2
ID : 4
Format : UTF-8
Codec ID : S_TEXT/UTF8
Codec ID/Info : UTF-8 Plain Text
Duration : 42 min 18 s
Bit rate : 75 b/s
Count of elements : 911
Stream size : 23.5 KiB (0%)
Title : SDH
Language : English
Default : No
Forced : No





Reverie S01E02


Reverie S01E02


Reverie S01E02


Reverie S01E02


Reverie S01E02

All episodes