Featured TV Shows


Reverie S01E04

Posted By: Tavaz
SD / WEB-DL IMDb
Reverie S01E04

Reverie S01E04
WEB-DL | MKV | 720x480 | English | H264 @ 1501 kbps | AC-3 @ 384 kbps | 43 min 3 s | 581 MiB
Subtitles: English
Genre: Drama

A former detective specializing in human behavior is brought in when the launch of an advanced virtual reality program has dangerous and unintended consequences.

1cd5353b6b99420e934b0a36c8870571.mkv (581.2 MB)



General
Unique ID : 252816575699211803442436787403174838012 (0xBE32B38C2CE0E917A4CD809B7621FEFC)
Complete name : ./1cd5353b6b99420e934b0a36c8870571.mkv
Format : Matroska
Format version : Version 4 / Version 2
File size : 581 MiB
Duration : 43 min 3 s
Overall bit rate : 1 887 kb/s
Encoded date : UTC 2018-06-22 18:10:00
Writing application : mkvmerge v24.0.0 ('Beyond The Pale') 64-bit
Writing library : libebml v1.3.6 + libmatroska v1.4.9

Video
ID : 1
Format : AVC
Format/Info : Advanced Video Codec
Format profile : Main@L3
Format settings : 2 Ref Frames
Format settings, CABAC : No
Format settings, RefFrames : 2 frames
Codec ID : V_MPEG4/ISO/AVC
Duration : 43 min 3 s
Bit rate : 1 501 kb/s
Width : 720 pixels
Height : 480 pixels
Display aspect ratio : 16:9
Frame rate mode : Constant
Frame rate : 23.976 (23976/1000) FPS
Color space : YUV
Chroma subsampling : 4:2:0
Bit depth : 8 bits
Scan type : Progressive
Bits/(Pixel*Frame) : 0.181
Stream size : 462 MiB (80%)
Language : English
Default : Yes
Forced : No
Color range : Limited
Color primaries : BT.709
Transfer characteristics : BT.709
Matrix coefficients : BT.709

Audio
ID : 2
Format : AC-3
Format/Info : Audio Coding 3
Format settings, Endianness : Big
Codec ID : A_AC3
Duration : 43 min 3 s
Bit rate mode : Constant
Bit rate : 384 kb/s
Channel(s) : 6 channels
Channel positions : Front: L C R, Side: L R, LFE
Sampling rate : 48.0 kHz
Frame rate : 31.250 FPS (1536 SPF)
Bit depth : 16 bits
Compression mode : Lossy
Delay relative to video : -42 ms
Stream size : 118 MiB (20%)
Language : English
Service kind : Complete Main
Default : Yes
Forced : No

Text
ID : 3
Format : UTF-8
Codec ID : S_TEXT/UTF8
Codec ID/Info : UTF-8 Plain Text
Duration : 42 min 19 s
Bit rate : 110 b/s
Count of elements : 929
Stream size : 34.3 KiB (0%)
Language : English
Default : Yes
Forced : No





Reverie S01E04


Reverie S01E04


Reverie S01E04


Reverie S01E04


Reverie S01E04

All episodes