Featured TV Shows


Reverie S01E05

Posted By: Tavaz
SD / WEB-DL IMDb
Reverie S01E05

Reverie S01E05
WEB-DL | MKV | 720x480 | English | H264 @ 1490 kbps | AC-3 @ 384 kbps | 42 min 58 s | 577 MiB
Subtitles: English
Genre: Drama

A former detective specializing in human behavior is brought in when the launch of an advanced virtual reality program has dangerous and unintended consequences.

87948c1e3bc348b6834611b790e08ab2.mkv (576.6 MB)



General
Unique ID : 114129385784069101141478390325157381757 (0x55DC85294F9F167938353E827F31467D)
Complete name : ./87948c1e3bc348b6834611b790e08ab2.mkv
Format : Matroska
Format version : Version 4 / Version 2
File size : 577 MiB
Duration : 42 min 58 s
Overall bit rate : 1 876 kb/s
Encoded date : UTC 2018-06-30 09:54:03
Writing application : mkvmerge v24.0.0 ('Beyond The Pale') 64-bit
Writing library : libebml v1.3.6 + libmatroska v1.4.9

Video
ID : 1
Format : AVC
Format/Info : Advanced Video Codec
Format profile : Main@L3
Format settings : 2 Ref Frames
Format settings, CABAC : No
Format settings, RefFrames : 2 frames
Codec ID : V_MPEG4/ISO/AVC
Duration : 42 min 58 s
Bit rate : 1 490 kb/s
Width : 720 pixels
Height : 480 pixels
Display aspect ratio : 16:9
Frame rate mode : Constant
Frame rate : 23.976 (23976/1000) FPS
Color space : YUV
Chroma subsampling : 4:2:0
Bit depth : 8 bits
Scan type : Progressive
Bits/(Pixel*Frame) : 0.180
Stream size : 458 MiB (79%)
Language : English
Default : Yes
Forced : No
Color range : Limited
Color primaries : BT.709
Transfer characteristics : BT.709
Matrix coefficients : BT.709

Audio
ID : 2
Format : AC-3
Format/Info : Audio Coding 3
Format settings, Endianness : Big
Codec ID : A_AC3
Duration : 42 min 58 s
Bit rate mode : Constant
Bit rate : 384 kb/s
Channel(s) : 6 channels
Channel positions : Front: L C R, Side: L R, LFE
Sampling rate : 48.0 kHz
Frame rate : 31.250 FPS (1536 SPF)
Bit depth : 16 bits
Compression mode : Lossy
Delay relative to video : -42 ms
Stream size : 118 MiB (20%)
Language : English
Service kind : Complete Main
Default : Yes
Forced : No

Text
ID : 3
Format : UTF-8
Codec ID : S_TEXT/UTF8
Codec ID/Info : UTF-8 Plain Text
Duration : 42 min 16 s
Bit rate : 107 b/s
Count of elements : 820
Stream size : 33.2 KiB (0%)
Language : English
Default : Yes
Forced : No





Reverie S01E05


Reverie S01E05


Reverie S01E05


Reverie S01E05


Reverie S01E05

All episodes