Featured TV Shows


Reverie S01E06

Posted By: Tavaz
720p (HD) / WEB-DL IMDb
Reverie S01E06

Reverie S01E06
WEB-DL | MKV | 1280x720 | English | H264 @ 1549 kbps | E-AC-3 @ 640 kbps | 43 min 3 s | 675 MiB
Subtitles: English
Genre: Drama

A former detective specializing in human behavior is brought in when the launch of an advanced virtual reality program has dangerous and unintended consequences.

6fd8c033cfbd478ca4a8cd80bd322450.mkv (675.2 MB)



General
Unique ID : 246611068804117658413307204266577227122 (0xB987906F96E2E616BFB78B6C9765ED72)
Complete name : ./6fd8c033cfbd478ca4a8cd80bd322450.mkv
Format : Matroska
Format version : Version 4 / Version 2
File size : 675 MiB
Duration : 43 min 3 s
Overall bit rate : 2 192 kb/s
Encoded date : UTC 2018-07-12 14:07:37
Writing application : mkvmerge v13.0.0 ('The Juggler') 64bit
Writing library : libebml v1.3.4 + libmatroska v1.4.5

Video
ID : 1
Format : AVC
Format/Info : Advanced Video Codec
Format profile : High@L3.1
Format settings : CABAC / 5 Ref Frames
Format settings, CABAC : Yes
Format settings, RefFrames : 5 frames
Codec ID : V_MPEG4/ISO/AVC
Duration : 43 min 3 s
Bit rate : 1 550 kb/s
Width : 1 280 pixels
Height : 720 pixels
Display aspect ratio : 16:9
Frame rate mode : Constant
Frame rate : 23.976 (24000/1001) FPS
Color space : YUV
Chroma subsampling : 4:2:0
Bit depth : 8 bits
Scan type : Progressive
Bits/(Pixel*Frame) : 0.070
Stream size : 477 MiB (71%)
Default : Yes
Forced : No
Color range : Limited
Color primaries : BT.709
Transfer characteristics : BT.709
Matrix coefficients : BT.709

Audio
ID : 2
Format : E-AC-3
Format/Info : Enhanced Audio Coding 3
Format settings, Endianness : Big
Codec ID : A_EAC3
Duration : 43 min 3 s
Bit rate mode : Constant
Bit rate : 640 kb/s
Channel(s) : 6 channels
Channel positions : Front: L C R, Side: L R, LFE
Sampling rate : 48.0 kHz
Frame rate : 187.500 FPS (256 SPF)
Compression mode : Lossy
Stream size : 197 MiB (29%)
Language : English
Service kind : Complete Main
Default : Yes
Forced : No

Text #1
ID : 3
Format : UTF-8
Codec ID : S_TEXT/UTF8
Codec ID/Info : UTF-8 Plain Text
Duration : 42 min 14 s
Bit rate : 74 b/s
Count of elements : 818
Stream size : 23.0 KiB (0%)
Language : English
Default : No
Forced : No

Text #2
ID : 4
Format : UTF-8
Codec ID : S_TEXT/UTF8
Codec ID/Info : UTF-8 Plain Text
Duration : 42 min 14 s
Bit rate : 81 b/s
Count of elements : 897
Stream size : 25.3 KiB (0%)
Title : SDH
Language : English
Default : No
Forced : No





Reverie S01E06


Reverie S01E06


Reverie S01E06


Reverie S01E06


Reverie S01E06

All episodes