Featured TV Shows


Reverie S01E10

Posted By: Tavaz
720p (HD) / WEB-DL IMDb
Reverie S01E10

Reverie S01E10
WEB-DL | MKV | 1280x720 | English | H264 @ 4082 kbps | AC-3 @ 384 kbps | 42 min 37 s | 1.33 GiB
Subtitles: English
Genre: Drama

A former detective specializing in human behavior is brought in when the launch of an advanced virtual reality program has dangerous and unintended consequences.

Reverie.S01E10.Point.of.Origin.720p.WEB-DL.DD5.1.H.264-LAZY.mkv (1.3 GB)



General
Unique ID : 212375493961188502059656704631601940128 (0x9FC608469B93BC295BFC16F496C8C6A0)
Complete name : ./Reverie.S01E10.Point.of.Origin.720p.WEB-DL.DD5.1.H.264-LAZY.mkv
Format : Matroska
Format version : Version 4 / Version 2
File size : 1.33 GiB
Duration : 42 min 37 s
Overall bit rate : 4 468 kb/s
Encoded date : UTC 2018-08-09 15:53:50
Writing application : mkvmerge v25.0.0 ('Prog Noir') 64-bit
Writing library : libebml v1.3.6 + libmatroska v1.4.9

Video
ID : 1
Format : AVC
Format/Info : Advanced Video Codec
Format profile : High@L3.1
Format settings : 2 Ref Frames
Format settings, CABAC : No
Format settings, RefFrames : 2 frames
Codec ID : V_MPEG4/ISO/AVC
Duration : 42 min 37 s
Bit rate : 4 082 kb/s
Width : 1 280 pixels
Height : 720 pixels
Display aspect ratio : 16:9
Frame rate mode : Constant
Frame rate : 23.976 (23976/1000) FPS
Color space : YUV
Chroma subsampling : 4:2:0
Bit depth : 8 bits
Scan type : Progressive
Bits/(Pixel*Frame) : 0.185
Stream size : 1.22 GiB (91%)
Language : English
Default : Yes
Forced : No
Color range : Limited
Color primaries : BT.709
Transfer characteristics : BT.709
Matrix coefficients : BT.709

Audio
ID : 2
Format : AC-3
Format/Info : Audio Coding 3
Format settings, Endianness : Big
Codec ID : A_AC3
Duration : 42 min 37 s
Bit rate mode : Constant
Bit rate : 384 kb/s
Channel(s) : 6 channels
Channel positions : Front: L C R, Side: L R, LFE
Sampling rate : 48.0 kHz
Frame rate : 31.250 FPS (1536 SPF)
Bit depth : 16 bits
Compression mode : Lossy
Delay relative to video : -42 ms
Stream size : 117 MiB (9%)
Language : English
Service kind : Complete Main
Default : Yes
Forced : No

Text
ID : 3
Format : UTF-8
Codec ID : S_TEXT/UTF8
Codec ID/Info : UTF-8 Plain Text
Duration : 41 min 51 s
Bit rate : 106 b/s
Count of elements : 900
Stream size : 32.7 KiB (0%)
Language : English
Default : Yes
Forced : No





Reverie S01E10


Reverie S01E10


Reverie S01E10


Reverie S01E10


Reverie S01E10

All episodes